Μετάβαση στο περιεχόμενο

loufjohn

M.Uploaders
  • Περιεχόμενα

    6.870
  • Εντάχθηκε

  • Τελευταία επίσκεψη

  • Days Won

    7

Φήμη στην κοινότητα

958 Excellent

Σχετικά loufjohn

  • Κατάταξη:
    Advanced Member

Profile Information

  • Country
    Greece
  • Gender
    Male
  • Gender
    Male
  • Gender
    Male

Τελευταίοι επισκέπτες προφίλ

1.151 profile views
  1. ΟΙ ΠΕΙΡΑΤΕΣ ΤΟΥ ΑΙΓΑΙΟΥ OPEN TV (2019) WEBRip AVI Σειρά ντοκιμαντέρ «Οι Πειρατές του Αιγαίου», η νέα σειρά ιστορικών δραματοποιημένων ντοκιμαντέρ φέρει την υπογραφή του Γιώργου Αυγερόπουλου και αφηγείται την ιστορία της Ανατολικής Μεσογείου και του Αιγαίου πελάγους από τον 15ο ως τον 19ο αιώνα δηλαδή από την πτώση της Κωνσταντινούπολης, μέχρι την σύσταση του ελληνικού κράτους. Δεσπόζουσες μορφές αυτής της άγνωστης και σκοτεινής περιόδου, είναι πειρατές και κουρσάροι κάθε εθνικότητας, που σπέρνουν τον τρόμο στις ακτές και στη θάλασσα. Επί τέσσερις αιώνες κατακτούν, λεηλατούν και καίνε τα πάντα στο πέρασμά τους, παίρνοντας για λεία τους αγαθά και ανθρώπους, τους οποίους θα τους πουλήσουν στα σκλαβοπάζαρα των Κυκλάδων, ή της Βόρειας Αφρικής. Η δράση τους άφησε ανεξίτηλο το στίγμα της στους παράκτιους πληθυσμούς, διαμόρφωσε την αρχιτεκτονική των νησιών και πέρασε στην λαϊκή παράδοση. «Οι Πειρατές του Αιγαίου» ζωντανεύουν μια εποχή βουτηγμένη στην αλμύρα και στο αίμα. Με συνεντεύξεις διακεκριμένων Ελλήνων και ξένων ιστορικών, με σύγχρονα γυρίσματα στους τόπους όπου διαδραματίστηκαν σημαντικά γεγονότα, με δραματοποιημένες σκηνές που οπτικοποιούν την δράση των πρωταγωνιστών κάθε επεισοδίου, με 3D γραφικά που ζωντανεύουν αιματηρές ναυμαχίες και με έρευνα σε έργα τέχνης, χάρτες και γκραβούρες, η σειρά αφηγείται 400 σκοτεινά χρόνια από την ιστορία της Ανατολικής Μεσογείου. Το σημείο συνάντησης τριών ηπείρων, και το σταυροδρόμι διαφορετικών πολιτισμών, εθνοτήτων και θρησκειών. Μια άγνωστη ιστορία που πρέπει να ειπωθεί, άρρηκτα συνδεδεμένη με την Ελλάδα και την Ευρώπη. General Complete name : ΟΙ ΠΕΙΡΑΤΕΣ ΤΟΥ ΑΙΓΑΙΟΥ\AEGEAN.EP.01.avi Format : AVI Format/Info : Audio Video Interleave Format profile : OpenDML File size : 1.05 GiB Duration : 47 min 59 s Overall bit rate : 3 129 kb/s Writing application : Lavf56.15.102 Video ID : 0 Format : AVC Format/Info : Advanced Video Codec Format profile : [email protected] Format settings : 2 Ref Frames Format settings, CABAC : No Format settings, ReFrames : 2 frames Codec ID : H264 Duration : 47 min 59 s Bit rate : 3 000 kb/s Width : 1 280 pixels Height : 720 pixels Display aspect ratio : 16:9 Frame rate mode : Variable Frame rate : 25.000 FPS Color space : YUV Chroma subsampling : 4:2:0 Bit depth : 8 bits Scan type : Progressive Bits/(Pixel*Frame) : 0.130 Stream size : 1.00 GiB (95%) Writing library : x264 core 142 Audio ID : 1 Format : MPEG Audio Format version : Version 1 Format profile : Layer 3 Format settings : Joint stereo / MS Stereo Codec ID : 55 Codec ID/Hint : MP3 Duration : 47 min 59 s Bit rate mode : Constant Bit rate : 128 kb/s Channel(s) : 2 channels Sampling rate : 44.1 kHz Compression mode : Lossy Stream size : 43.9 MiB (4%) Alignment : Aligned on interleaves Interleave, duration : 26 ms (0.65 video frame) Interleave, preload duration : 26 ms Writing library : LAME3.98.4 [Hidden Content]
×