Μετάβαση στο περιεχόμενο
marinara

WILDLIFE (2018) 720p BluRay x264 DTS-Manning ΞΕΧΩΡΙΣΤΟΙ ΥΠΟΤΙΤΛΟΙ

Recommended Posts

 

63eIcDl.jpg


Τοποθετημένη στα 60ς στην περιοχή Great Falls της Μοντάνα, η ιστορία ακολουθεί τα ίχνη μίας οικογένειας όπου ο πατέρας αποδέχεται μία παράτολμη εργασία στα βουνά και εγκαταλείπει τη γυναίκα και το 14χρονο γιο του στην τύχη τους. Η μητέρα τώρα πρέπει να πάρει τα ηνία της ζωής τους στα χέρια της.


usDrZmS.png

https://www.imdb.com/title/tt5929754/


Είδος Ταινίας: Drama
Πρεμιέρα: 13 December 2018 (Greece)
Σκηνοθέτης: Paul Dano
Σενάριο: Paul Dano (screenplay by), Zoe Kazan (screenplay by)
Ηθοποιοί: Jake Gyllenhaal, Carey Mulligan, Ed Oxenbould
Μετάφραση: Drakman 1000modi
Διάρκεια: 105'

 

3sZwobQ.png

 

General
Unique ID                      : 208198644952719496610884458502555985649 (0x9CA199B85EFCD6388ECCDBB190B466F1)
Complete name                  : I:\Wildlife.2018.720p.BluRay.x264.DTS-Manning.mkv
Format                         : Matroska
Format version                 : Version 4 / Version 2
File size                      : 4.77 GiB
Duration                       : 1h 44mn
Overall bit rate               : 6 512 Kbps
Movie name                     : Manning
Encoded date                   : UTC 2019-03-14 13:01:54
Writing application            : mkvmerge v8.0.0 ('Til The Day That I Die') 32bit
Writing library                : libebml v1.3.1 + libmatroska v1.4.2
DURATION                       : 01:44:54.294000000
NUMBER_OF_FRAMES               : 590090
NUMBER_OF_BYTES                : 1187261080
_STATISTICS_WRITING_APP        : mkvmerge v8.0.0 ('Til The Day That I Die') 32bit
_STATISTICS_WRITING_DATE_UTC   : 2019-03-14 13:01:54
_STATISTICS_TAGS               : BPS DURATION NUMBER_OF_FRAMES NUMBER_OF_BYTES

Video
ID                             : 2
Format                         : AVC
Format/Info                    : Advanced Video Codec
Format profile                 : [email protected]
Format settings, CABAC         : Yes
Format settings, ReFrames      : 5 frames
Codec ID                       : V_MPEG4/ISO/AVC
Duration                       : 1h 44mn
Bit rate                       : 5 000 Kbps
Width                          : 1 280 pixels
Height                         : 694 pixels
Display aspect ratio           : 16:9
Frame rate mode                : Variable
Frame rate                     : 23.976 fps
Color space                    : YUV
Chroma subsampling             : 4:2:0
Bit depth                      : 8 bits
Scan type                      : Progressive
Bits/(Pixel*Frame)             : 0.235
Stream size                    : 3.57 GiB (75%)
Writing library                : x264 core 155 r2901 7d0ff22
Encoding settings              : cabac=1 / ref=5 / deblock=1:0:0 / analyse=0x3:0x113 / me=hex / subme=8 / psy=1 / psy_rd=1.00:0.00 / mixed_ref=1 / me_range=16 / chroma_me=1 / trellis=2 / 8x8dct=1 / cqm=0 / deadzone=21,11 / fast_pskip=1 / chroma_qp_offset=-2 / threads=6 / lookahead_threads=1 / sliced_threads=0 / nr=0 / decimate=1 / interlaced=0 / bluray_compat=0 / constrained_intra=0 / bframes=3 / b_pyramid=2 / b_adapt=1 / b_bias=0 / direct=3 / weightb=1 / open_gop=0 / weightp=2 / keyint=240 / keyint_min=24 / scenecut=40 / intra_refresh=0 / rc_lookahead=50 / rc=2pass / mbtree=1 / bitrate=5000 / ratetol=1.0 / qcomp=0.60 / qpmin=0 / qpmax=69 / qpstep=4 / cplxblur=20.0 / qblur=0.5 / vbv_maxrate=62500 / vbv_bufsize=78125 / nal_hrd=none / filler=0 / ip_ratio=1.40 / aq=1:1.00
Color primaries                : BT.709-5, BT.1361, IEC 61966-2-4, SMPTE RP177
Transfer characteristics       : BT.709-5, BT.1361
Matrix coefficients            : BT.709-5, BT.1361, IEC 61966-2-4 709, SMPTE RP177

Audio
ID                             : 1
Format                         : DTS
Format/Info                    : Digital Theater Systems
Codec ID                       : A_DTS
Duration                       : 1h 44mn
Bit rate mode                  : Constant
Bit rate                       : 1 510 Kbps
Channel(s)                     : 6 channels
Channel positions              : Front: L C R, Side: L R, LFE
Sampling rate                  : 48.0 KHz
Bit depth                      : 24 bits
Compression mode               : Lossy
Stream size                    : 1.11 GiB (23%)
DURATION                       : 01:44:55.289000000
NUMBER_OF_FRAMES               : 150934
NUMBER_OF_BYTES                : 3935140508
_STATISTICS_WRITING_APP        : mkvmerge v8.0.0 ('Til The Day That I Die') 32bit
_STATISTICS_WRITING_DATE_UTC   : 2019-03-14 13:01:54
_STATISTICS_TAGS               : BPS DURATION NUMBER_OF_FRAMES NUMBER_OF_BYTES

 

sow2nXC.jpg

 

EASYBYTEZ | UPLOADED


Hidden Content

    Give reaction or reply to this topic to see the hidden content.

  • Like 2
  • Thanks 1

Μοιράσου αυτή την δημοσίευση


Link to post
Share on other sites

Δημιουργήστε ένα λογαριασμό ή συνδεθείτε προκειμένου να αφήσετε κάποιο σχόλιο

Πρέπει να είστε μέλος για να μπορέσετε να αφήσετε κάποιο σχόλιο

Δημιουργία λογαριασμού

Κάντε μια δωρεάν εγγραφή στην κοινότητά μας. Είναι εύκολο!

Εγγραφή νέου λογαριασμού

Σύνδεση

Εάν έχετε ήδη λογαριασμό; Συνδεθείτε εδώ.

Συνδεθείτε τώρα

×