Μετάβαση στο περιεχόμενο
вирус

WILDLIFE (2018) BDRip XviD AC3-EVO | ENΣΩΜΑΤΩΜΕΝΟΙ ΥΠΟΤΙΤΛΟΙ

Recommended Posts

Ungrkvy.jpg

ΣΚΗΝΟΘΕΣΙΑ : Paul Dano
ΣΕΝΑΡΙΟ : Paul Dano (screenplay by), Zoe Kazan
ΗΘΟΠΟΙΟΙ : Jake Gyllenhaal, Carey Mulligan, Ed Oxenbould 
ΕΙΔΟΣ :  Drama 
ΠΡΕΜΙΕΡΑ : 13 December 2018 (Greece)

ΜΕΤΑΦΡΑΣΗ : Drakman

Ο Τζέρι (Jake Gyllenhaal), η Τζην (Carey Mulligan) και ο 14χρονος Τζο (Ed Oxenbould) αποτελούν μια κλασική αμερικανική οικογένεια της δεκαετίας του ’60. Ο άντρας πρέπει να δουλεύει, η γυναίκα να μεγαλώνει το παιδί και ο γιος να παίζει φούτμπολ στο σχολείο. Ήμαστε, όμως, σε μια δεκαετία που όλα αλλάζουν στην Αμερική: οι οικογενειακές ισορροπίες, ο ρόλος των φύλων, ακόμα και ο ορισμός της ευτυχίας. Όταν ο Τζέρι μένει άνεργος, η Τζέην και ο Τζο πιάνουν δουλειές και ο εγωισμός του «άντρα του σπιτιού» πληγώνεται σε τέτοιο βαθμό που απομακρύνεται -κυριολεκτικά και μεταφορικά- από την οικογένειά του. Ο Τζο περιμένει την επιστροφή του πατέρα του, ειδικά όταν βλέπει την καινούρια συμπεριφορά της μητέρας του. Συναναστρέφεται όλο και περισσότερο με τον καινούριο φίλο της (Bill Camp), αποζητώντας σταθερότητα και συντροφιά.

5DeZhEX.png


3sZwobQ.png

 

 


TEXNIKA XAΡΑΚΤΗΡΙΣΤΙΚΑ

General
Format                      : Matroska
Format version              : Version 2
File size                   : 1.37 GiB
Duration                    : 1 h 44 min
Overall bit rate            : 1 866 kb/s

Video
ID                          : 1
Format                      : AVC
Format/Info                 : Advanced Video Codec
Format profile              : [email protected]
Format settings             : CABAC / 4 Ref Frames
Format settings, CABAC      : Yes
Format settings, ReFrames   : 4 frames
Codec ID                    : V_MPEG4/ISO/AVC
Duration                    : 1 h 44 min
Bit rate                    : 1 416 kb/s
Width                       : 720 pixels
Height                      : 384 pixels
Display aspect ratio        : 1.85:1
Frame rate mode             : Constant
Frame rate                  : 23.976 (24000/1001) FPS
Color space                 : YUV
Chroma subsampling          : 4:2:0
Bit depth                   : 8 bits
Scan type                   : Progressive
Bits/(Pixel*Frame)          : 0.214
Stream size                 : 1.01 GiB (74%)
Writing library             : x264 core 148 r2638 7599210

Audio
ID                          : 2
Format                      : AC-3
Format/Info                 : Audio Coding 3
Codec ID                    : A_AC3
Duration                    : 1 h 44 min
Bit rate mode               : Constant
Bit rate                    : 448 kb/s
Channel(s)                  : 6 channels
Channel positions           : Front: L C R, Side: L R, LFE
Sampling rate               : 48.0 kHz
Frame rate                  : 31.250 FPS (1536 SPF)
Bit depth                   : 16 bits
Compression mode            : Lossy
Stream size                 : 336 MiB (24%)
Service kind                : Complete Main
Default                     : Yes
Forced                      : No


usDrZmS.png

https://www.imdb.com/title/tt5929754/


YsK48dD.png

hsp9fZM.png

Hidden Content

    Give reaction or reply to this topic to see the hidden content.


eCmryx5.png

Hidden Content

    Give reaction or reply to this topic to see the hidden content.

Va48KiA.png

Hidden Content

    Give reaction or reply to this topic to see the hidden content.

  • Like 2
  • Thanks 2

Μοιράσου αυτή την δημοσίευση


Link to post
Share on other sites
2 ώρες πριν, вирус said:

 

Ungrkvy.jpg

ΣΚΗΝΟΘΕΣΙΑ : Paul Dano
ΣΕΝΑΡΙΟ : Paul Dano (screenplay by), Zoe Kazan
ΗΘΟΠΟΙΟΙ : Jake Gyllenhaal, Carey Mulligan, Ed Oxenbould 
ΕΙΔΟΣ :  Drama 
ΠΡΕΜΙΕΡΑ : 13 December 2018 (Greece)

ΜΕΤΑΦΡΑΣΗ : Drakman

Ο Τζέρι (Jake Gyllenhaal), η Τζην (Carey Mulligan) και ο 14χρονος Τζο (Ed Oxenbould) αποτελούν μια κλασική αμερικανική οικογένεια της δεκαετίας του ’60. Ο άντρας πρέπει να δουλεύει, η γυναίκα να μεγαλώνει το παιδί και ο γιος να παίζει φούτμπολ στο σχολείο. Ήμαστε, όμως, σε μια δεκαετία που όλα αλλάζουν στην Αμερική: οι οικογενειακές ισορροπίες, ο ρόλος των φύλων, ακόμα και ο ορισμός της ευτυχίας. Όταν ο Τζέρι μένει άνεργος, η Τζέην και ο Τζο πιάνουν δουλειές και ο εγωισμός του «άντρα του σπιτιού» πληγώνεται σε τέτοιο βαθμό που απομακρύνεται -κυριολεκτικά και μεταφορικά- από την οικογένειά του. Ο Τζο περιμένει την επιστροφή του πατέρα του, ειδικά όταν βλέπει την καινούρια συμπεριφορά της μητέρας του. Συναναστρέφεται όλο και περισσότερο με τον καινούριο φίλο της (Bill Camp), αποζητώντας σταθερότητα και συντροφιά.

5DeZhEX.png


3sZwobQ.png

 

 


TEXNIKA XAΡΑΚΤΗΡΙΣΤΙΚΑ

 

General
Format                      : Matroska
Format version              : Version 2
File size                   : 1.37 GiB
Duration                    : 1 h 44 min
Overall bit rate            : 1 866 kb/s

Video
ID                          : 1
Format                      : AVC
Format/Info                 : Advanced Video Codec
Format profile              : [email protected]
Format settings             : CABAC / 4 Ref Frames
Format settings, CABAC      : Yes
Format settings, ReFrames   : 4 frames
Codec ID                    : V_MPEG4/ISO/AVC
Duration                    : 1 h 44 min
Bit rate                    : 1 416 kb/s
Width                       : 720 pixels
Height                      : 384 pixels
Display aspect ratio        : 1.85:1
Frame rate mode             : Constant
Frame rate                  : 23.976 (24000/1001) FPS
Color space                 : YUV
Chroma subsampling          : 4:2:0
Bit depth                   : 8 bits
Scan type                   : Progressive
Bits/(Pixel*Frame)          : 0.214
Stream size                 : 1.01 GiB (74%)
Writing library             : x264 core 148 r2638 7599210

Audio
ID                          : 2
Format                      : AC-3
Format/Info                 : Audio Coding 3
Codec ID                    : A_AC3
Duration                    : 1 h 44 min
Bit rate mode               : Constant
Bit rate                    : 448 kb/s
Channel(s)                  : 6 channels
Channel positions           : Front: L C R, Side: L R, LFE
Sampling rate               : 48.0 kHz
Frame rate                  : 31.250 FPS (1536 SPF)
Bit depth                   : 16 bits
Compression mode            : Lossy
Stream size                 : 336 MiB (24%)
Service kind                : Complete Main
Default                     : Yes
Forced                      : No

 


usDrZmS.png

https://www.imdb.com/title/tt5929754/

 


YsK48dD.png

hsp9fZM.png

 

Hidden Content

  • Give reaction or reply to this topic to see the hidden content.

 


eCmryx5.png

 

Hidden Content

  • Give reaction or reply to this topic to see the hidden content.

 

Va48KiA.png

 

Hidden Content

  • Give reaction or reply to this topic to see the hidden content.

 

 

euxaristw

  • Thanks 1

Μοιράσου αυτή την δημοσίευση


Link to post
Share on other sites

Δημιουργήστε ένα λογαριασμό ή συνδεθείτε προκειμένου να αφήσετε κάποιο σχόλιο

Πρέπει να είστε μέλος για να μπορέσετε να αφήσετε κάποιο σχόλιο

Δημιουργία λογαριασμού

Κάντε μια δωρεάν εγγραφή στην κοινότητά μας. Είναι εύκολο!

Εγγραφή νέου λογαριασμού

Σύνδεση

Εάν έχετε ήδη λογαριασμό; Συνδεθείτε εδώ.

Συνδεθείτε τώρα

×