Μετάβαση στο περιεχόμενο
вирус

AQUAMAN (2018) IMAX BRRip XviD AC3-EVO | ENΣΩΜΑΤΩΜΕΝΟΙ ΥΠΟΤΙΤΛΟΙ

Recommended Posts

4JISsV3.jpg

ΣΚΗΝΟΘΕΣΙΑ : James Wan
ΣΕΝΑΡΙΟ : David Leslie Johnson-McGoldrick (screenplay by), Will Beall 
ΗΘΟΠΟΙΟΙ : Jason Momoa, Amber Heard, Willem Dafoe
ΕΙΔΟΣ : Action, Adventure, Fantasy
ΠΡΕΜΙΕΡΑ : 13 December 2018 (Greece)

ΜΕΤΑΦΡΑΣΗ : TheQueen

Η ιστορία αποκαλύπτει την προέλευση του μισού-ανθρώπου, μισού-Ατλάντειου Άρθουρ Κάρι και εξερευνά το ταξίδι της ζωής του - ένα ταξίδι που δεν θα τον αναγκάσει απλώς να αντικρίσει τον πραγματικό του εαυτό, αλλά να ανακαλύψει αν είναι άξιος να γίνει αυτός που γεννήθηκε... Να γίνει ένας βασιλιάς!.

HLTXNtk.png


3sZwobQ.png

 

 


TEXNIKA XAΡΑΚΤΗΡΙΣΤΙΚΑ

General
Format                      : AVI
Format/Info                 : Audio Video Interleave
File size                   : 1.49 GiB
Duration                    : 2 h 23 min
Overall bit rate            : 1 492 kb/s
Writing application         : VirtualDubMod 1.5.10.2 (build 2542/release)
Writing library             : VirtualDubMod build 2542/release

Video
ID                          : 0
Format                      : MPEG-4 Visual
Format profile              : Advanced [email protected]
Format settings             : BVOP1
Format settings, BVOP       : 1
Format settings, QPel       : No
Format settings, GMC        : No warppoints
Format settings, Matrix     : Default (H.263)
Muxing mode                 : Packed bitstream
Codec ID                    : XVID
Codec ID/Hint               : XviD
Duration                    : 2 h 23 min
Bit rate                    : 1 100 kb/s
Width                       : 720 pixels
Height                      : 400 pixels
Display aspect ratio        : 16:9
Frame rate                  : 23.976 (24000/1001) FPS
Color space                 : YUV
Chroma subsampling          : 4:2:0
Bit depth                   : 8 bits
Scan type                   : Progressive
Compression mode            : Lossy
Bits/(Pixel*Frame)          : 0.159
Stream size                 : 1.10 GiB (74%)
Writing library             : XviD 64

Audio
ID                          : 1
Format                      : AC-3
Format/Info                 : Audio Coding 3
Codec ID                    : 2000
Duration                    : 2 h 23 min
Bit rate mode               : Constant
Bit rate                    : 384 kb/s
Channel(s)                  : 6 channels
Channel positions           : Front: L C R, Side: L R, LFE
Sampling rate               : 48.0 kHz
Frame rate                  : 31.250 FPS (1536 SPF)
Bit depth                   : 16 bits
Compression mode            : Lossy
Stream size                 : 394 MiB (26%)
Alignment                   : Split accross interleaves
Interleave, duration        : 64  ms (1.53 video frames)
Interleave, preload duratio : 500  ms
Service kind                : Complete Main


usDrZmS.png

https://www.imdb.com/title/tt1477834/


YsK48dD.png

hsp9fZM.png

Hidden Content

    Give reaction or reply to this topic to see the hidden content.


eCmryx5.png

Hidden Content

    Give reaction or reply to this topic to see the hidden content.

Va48KiA.png

Hidden Content

    Give reaction or reply to this topic to see the hidden content.

  • Like 7
  • Thanks 6

Μοιράσου αυτή την δημοσίευση


Link to post
Share on other sites

Δημιουργήστε ένα λογαριασμό ή συνδεθείτε προκειμένου να αφήσετε κάποιο σχόλιο

Πρέπει να είστε μέλος για να μπορέσετε να αφήσετε κάποιο σχόλιο

Δημιουργία λογαριασμού

Κάντε μια δωρεάν εγγραφή στην κοινότητά μας. Είναι εύκολο!

Εγγραφή νέου λογαριασμού

Σύνδεση

Εάν έχετε ήδη λογαριασμό; Συνδεθείτε εδώ.

Συνδεθείτε τώρα

×