Μετάβαση στο περιεχόμενο
вирус

TRIPLE FRONTIER (2019) WEBRip XviD AC3-FGT | ENΣΩΜΑΤΩΜΕΝΟΙ ΥΠΟΤΙΤΛΟΙ

Recommended Posts

ZTGBIb0.jpg

ΣΚΗΝΟΘΕΣΙΑ : J.C. Chandor
ΣΕΝΑΡΙΟ : Mark Boal (screenplay), J.C. Chandor 
ΗΘΟΠΟΙΟΙ : Adria Arjona, Ben Affleck, Charlie Hunnam 
ΕΙΔΟΣ : Action, Adventure, Crime 
ΠΡΕΜΙΕΡΑ : 13 March 2019 (USA)

ΜΕΤΑΦΡΑΣΗ : Ιωάννης Γενιτζές

Μια ομάδα πρώην πρακτόρων των ειδικών δυνάμεων (Μπεν Άφλεκ, Όσκαρ Άιζακ, Τσάρλι Χάναμ, Γκάρετ Χέντλαντ και Πέντρο Πασκάλ) ενώνεται ξανά για να οργανώσει μια ληστεία σε μια αραιοκατοικημένη ζώνη πολλαπλών συνόρων της Νότιας Αμερικής. Για πρώτη φορά στις υψηλές κύρους καριέρες τους, αυτοί οι άγνωστοι ήρωες αναλαμβάνουν μια επικίνδυνη αποστολή για τους ίδιους τους εαυτούς τους και όχι για τη χώρα τους. Όταν όμως τα γεγονότα παίρνουν μια απροσδόκητη τροπή και απειλούν να ξεφύγουν από τον έλεγχο, οι ικανότητές, η πίστη και η ηθική τους ωθούνται στα άκρα σε μια επική μάχη για επιβίωση.

nd8imyh.png


3sZwobQ.png

 

 


TEXNIKA XAΡΑΚΤΗΡΙΣΤΙΚΑ

General
Format                      : AVI
Format/Info                 : Audio Video Interleave
Format profile              : OpenDML
File size                   : 2.20 GiB
Duration                    : 2 h 5 min
Overall bit rate            : 2 504 kb/s
Writing application         : VirtualDubMod 1.5.10.2 (build 2542/release)
Writing library             : VirtualDubMod build 2542/release

Video
ID                          : 0
Format                      : MPEG-4 Visual
Format profile              : Advanced [email protected]
Format settings             : BVOP1
Format settings, BVOP       : 1
Format settings, QPel       : No
Format settings, GMC        : No warppoints
Format settings, Matrix     : Default (H.263)
Muxing mode                 : Packed bitstream
Codec ID                    : XVID
Codec ID/Hint               : XviD
Duration                    : 2 h 5 min
Bit rate                    : 2 046 kb/s
Width                       : 720 pixels
Height                      : 340 pixels
Display aspect ratio        : 2.118
Frame rate                  : 24.000 FPS
Color space                 : YUV
Chroma subsampling          : 4:2:0
Bit depth                   : 8 bits
Scan type                   : Progressive
Compression mode            : Lossy
Bits/(Pixel*Frame)          : 0.348
Stream size                 : 1.80 GiB (82%)
Writing library             : XviD 64

Audio
ID                          : 1
Format                      : AC-3
Format/Info                 : Audio Coding 3
Codec ID                    : 2000
Duration                    : 2 h 5 min
Bit rate mode               : Constant
Bit rate                    : 448 kb/s
Channel(s)                  : 6 channels
Channel positions           : Front: L C R, Side: L R, LFE
Sampling rate               : 48.0 kHz
Frame rate                  : 31.250 FPS (1536 SPF)
Bit depth                   : 16 bits
Compression mode            : Lossy
Stream size                 : 403 MiB (18%)
Alignment                   : Split accross interleaves
Interleave, duration        : 64  ms (1.54 video frames)
Interleave, preload duratio : 500  ms
Service kind                : Complete Main


usDrZmS.png

https://www.imdb.com/title/tt1488606/


YsK48dD.png

hsp9fZM.png

Hidden Content

    Give reaction or reply to this topic to see the hidden content.


eCmryx5.png

Hidden Content

    Give reaction or reply to this topic to see the hidden content.

Va48KiA.png

Hidden Content

    Give reaction or reply to this topic to see the hidden content.

  • Like 11
  • Thanks 9

Μοιράσου αυτή την δημοσίευση


Link to post
Share on other sites
1 ώρα πριν, вирус said:

 

ZTGBIb0.jpg

ΣΚΗΝΟΘΕΣΙΑ : J.C. Chandor
ΣΕΝΑΡΙΟ : Mark Boal (screenplay), J.C. Chandor 
ΗΘΟΠΟΙΟΙ : Adria Arjona, Ben Affleck, Charlie Hunnam 
ΕΙΔΟΣ : Action, Adventure, Crime 
ΠΡΕΜΙΕΡΑ : 13 March 2019 (USA)

ΜΕΤΑΦΡΑΣΗ : Ιωάννης Γενιτζές

Μια ομάδα πρώην πρακτόρων των ειδικών δυνάμεων (Μπεν Άφλεκ, Όσκαρ Άιζακ, Τσάρλι Χάναμ, Γκάρετ Χέντλαντ και Πέντρο Πασκάλ) ενώνεται ξανά για να οργανώσει μια ληστεία σε μια αραιοκατοικημένη ζώνη πολλαπλών συνόρων της Νότιας Αμερικής. Για πρώτη φορά στις υψηλές κύρους καριέρες τους, αυτοί οι άγνωστοι ήρωες αναλαμβάνουν μια επικίνδυνη αποστολή για τους ίδιους τους εαυτούς τους και όχι για τη χώρα τους. Όταν όμως τα γεγονότα παίρνουν μια απροσδόκητη τροπή και απειλούν να ξεφύγουν από τον έλεγχο, οι ικανότητές, η πίστη και η ηθική τους ωθούνται στα άκρα σε μια επική μάχη για επιβίωση.

nd8imyh.png


3sZwobQ.png

 

 


TEXNIKA XAΡΑΚΤΗΡΙΣΤΙΚΑ

 

General
Format                      : AVI
Format/Info                 : Audio Video Interleave
Format profile              : OpenDML
File size                   : 2.20 GiB
Duration                    : 2 h 5 min
Overall bit rate            : 2 504 kb/s
Writing application         : VirtualDubMod 1.5.10.2 (build 2542/release)
Writing library             : VirtualDubMod build 2542/release

Video
ID                          : 0
Format                      : MPEG-4 Visual
Format profile              : Advanced [email protected]
Format settings             : BVOP1
Format settings, BVOP       : 1
Format settings, QPel       : No
Format settings, GMC        : No warppoints
Format settings, Matrix     : Default (H.263)
Muxing mode                 : Packed bitstream
Codec ID                    : XVID
Codec ID/Hint               : XviD
Duration                    : 2 h 5 min
Bit rate                    : 2 046 kb/s
Width                       : 720 pixels
Height                      : 340 pixels
Display aspect ratio        : 2.118
Frame rate                  : 24.000 FPS
Color space                 : YUV
Chroma subsampling          : 4:2:0
Bit depth                   : 8 bits
Scan type                   : Progressive
Compression mode            : Lossy
Bits/(Pixel*Frame)          : 0.348
Stream size                 : 1.80 GiB (82%)
Writing library             : XviD 64

Audio
ID                          : 1
Format                      : AC-3
Format/Info                 : Audio Coding 3
Codec ID                    : 2000
Duration                    : 2 h 5 min
Bit rate mode               : Constant
Bit rate                    : 448 kb/s
Channel(s)                  : 6 channels
Channel positions           : Front: L C R, Side: L R, LFE
Sampling rate               : 48.0 kHz
Frame rate                  : 31.250 FPS (1536 SPF)
Bit depth                   : 16 bits
Compression mode            : Lossy
Stream size                 : 403 MiB (18%)
Alignment                   : Split accross interleaves
Interleave, duration        : 64  ms (1.54 video frames)
Interleave, preload duratio : 500  ms
Service kind                : Complete Main

 


usDrZmS.png

https://www.imdb.com/title/tt1488606/

 


YsK48dD.png

hsp9fZM.png

 

Hidden Content

  • Give reaction or reply to this topic to see the hidden content.

 


eCmryx5.png

 

Hidden Content

  • Give reaction or reply to this topic to see the hidden content.

 

Va48KiA.png

 

Hidden Content

  • Give reaction or reply to this topic to see the hidden content.

 

 

ευχαριστω

  • Like 1

Μοιράσου αυτή την δημοσίευση


Link to post
Share on other sites

Δημιουργήστε ένα λογαριασμό ή συνδεθείτε προκειμένου να αφήσετε κάποιο σχόλιο

Πρέπει να είστε μέλος για να μπορέσετε να αφήσετε κάποιο σχόλιο

Δημιουργία λογαριασμού

Κάντε μια δωρεάν εγγραφή στην κοινότητά μας. Είναι εύκολο!

Εγγραφή νέου λογαριασμού

Σύνδεση

Εάν έχετε ήδη λογαριασμό; Συνδεθείτε εδώ.

Συνδεθείτε τώρα

×