Μετάβαση στο περιεχόμενο
вирус

THE CLOVEHITCH KILLER (2018) BRRip XviD AC3-XVID | ENΣΩΜΑΤΩΜΕΝΟΙ ΥΠΟΤΙΤΛΟΙ

Recommended Posts

QYhjP8d.jpg

ΣΚΗΝΟΘΕΣΙΑ :  Duncan Skiles
ΣΕΝΑΡΙΟ : Christopher Ford
ΗΘΟΠΟΙΟΙ : Charlie Plummer, Dylan McDermott, Samantha Mathis
ΕΙΔΟΣ : Drama, Horror, Mystery
ΠΡΕΜΙΕΡΑ : 16 November 2018 (USA)

ΜΕΤΑΦΡΑΣΗ : DROOPY

Η υπόθεση του έργου εστιάζει στον έφηβο ‘Tyler Burnside’ ο οποίος αποφασίζει να φέρει στο σπίτι την νέα του κοπέλα. Ωστόσο, τα πράγματα δεν πάνε όπως τα περίμενε μιας και ο νεαρός γελοιοποιείται μπροστά στα μάτια της καλεσμένης του εκείνη την μέρα.

 

Η κατάσταση παίρνει μία αναπάντεχα ζοφερή τροπή όταν το αγόρι αρχίζει να ανακαλύπτει συνταρακτικές αλήθειες για το παρελθόν του πατέρα του που είναι σεβαστό μέλος της τοπικής κοινωνίας και αρχηγός της ομάδας προσκόπων στην περιοχή. Το παιδί υποπτεύεται τον γονιό του ως κατά συρροή δολοφόνο δέκα γυναικών που βασανίστηκαν μέχρι θανάτου στα χέρια ενός ψυχοπαθούς δράστη με το ψευδώνυμο “Clovehitch” και η κατάσταση μεταξύ τους γίνεται βαθμιαία ολοένα και πιο τεταμένη και ασταθής.

JexlJDW.png


3sZwobQ.png

 

 


TEXNIKA XAΡΑΚΤΗΡΙΣΤΙΚΑ

General
Format                      : AVI
Format/Info                 : Audio Video Interleave
File size                   : 1.41 GiB
Duration                    : 1 h 49 min
Overall bit rate            : 1 838 kb/s
Writing application         : VirtualDubMod 1.5.10.2 (build 2542/release)
Writing library             : VirtualDubMod build 2542/release

Video
ID                          : 0
Format                      : MPEG-4 Visual
Format profile              : Advanced [email protected]
Format settings             : BVOP1
Format settings, BVOP       : 1
Format settings, QPel       : No
Format settings, GMC        : No warppoints
Format settings, Matrix     : Default (H.263)
Muxing mode                 : Packed bitstream
Codec ID                    : XVID
Codec ID/Hint               : XviD
Duration                    : 1 h 49 min
Bit rate                    : 1 383 kb/s
Width                       : 720 pixels
Height                      : 400 pixels
Display aspect ratio        : 16:9
Frame rate                  : 23.976 (24000/1001) FPS
Color space                 : YUV
Chroma subsampling          : 4:2:0
Bit depth                   : 8 bits
Scan type                   : Progressive
Compression mode            : Lossy
Bits/(Pixel*Frame)          : 0.200
Stream size                 : 1.06 GiB (75%)
Writing library             : XviD 64

Audio
ID                          : 1
Format                      : AC-3
Format/Info                 : Audio Coding 3
Codec ID                    : 2000
Duration                    : 1 h 49 min
Bit rate mode               : Constant
Bit rate                    : 448 kb/s
Channel(s)                  : 6 channels
Channel positions           : Front: L C R, Side: L R, LFE
Sampling rate               : 48.0 kHz
Frame rate                  : 31.250 FPS (1536 SPF)
Bit depth                   : 16 bits
Compression mode            : Lossy
Stream size                 : 351 MiB (24%)
Alignment                   : Split accross interleaves
Interleave, duration        : 64  ms (1.53 video frames)
Interleave, preload duratio : 500  ms
Service kind                : Complete Main


usDrZmS.png

https://www.imdb.com/title/tt6269368/


YsK48dD.png

hsp9fZM.png

Hidden Content

    Give reaction or reply to this topic to see the hidden content.


eCmryx5.png

Hidden Content

    Give reaction or reply to this topic to see the hidden content.

Va48KiA.png

Hidden Content

    Give reaction or reply to this topic to see the hidden content.

  • Like 4
  • Thanks 5

Μοιράσου αυτή την δημοσίευση


Link to post
Share on other sites
On 2019-03-13 at 4:28 PM, вирус said:

 

QYhjP8d.jpg

ΣΚΗΝΟΘΕΣΙΑ :  Duncan Skiles
ΣΕΝΑΡΙΟ : Christopher Ford
ΗΘΟΠΟΙΟΙ : Charlie Plummer, Dylan McDermott, Samantha Mathis
ΕΙΔΟΣ : Drama, Horror, Mystery
ΠΡΕΜΙΕΡΑ : 16 November 2018 (USA)

ΜΕΤΑΦΡΑΣΗ : DROOPY

Η υπόθεση του έργου εστιάζει στον έφηβο ‘Tyler Burnside’ ο οποίος αποφασίζει να φέρει στο σπίτι την νέα του κοπέλα. Ωστόσο, τα πράγματα δεν πάνε όπως τα περίμενε μιας και ο νεαρός γελοιοποιείται μπροστά στα μάτια της καλεσμένης του εκείνη την μέρα.

 

Η κατάσταση παίρνει μία αναπάντεχα ζοφερή τροπή όταν το αγόρι αρχίζει να ανακαλύπτει συνταρακτικές αλήθειες για το παρελθόν του πατέρα του που είναι σεβαστό μέλος της τοπικής κοινωνίας και αρχηγός της ομάδας προσκόπων στην περιοχή. Το παιδί υποπτεύεται τον γονιό του ως κατά συρροή δολοφόνο δέκα γυναικών που βασανίστηκαν μέχρι θανάτου στα χέρια ενός ψυχοπαθούς δράστη με το ψευδώνυμο “Clovehitch” και η κατάσταση μεταξύ τους γίνεται βαθμιαία ολοένα και πιο τεταμένη και ασταθής.

JexlJDW.png


3sZwobQ.png

 

 


TEXNIKA XAΡΑΚΤΗΡΙΣΤΙΚΑ

 

General
Format                      : AVI
Format/Info                 : Audio Video Interleave
File size                   : 1.41 GiB
Duration                    : 1 h 49 min
Overall bit rate            : 1 838 kb/s
Writing application         : VirtualDubMod 1.5.10.2 (build 2542/release)
Writing library             : VirtualDubMod build 2542/release

Video
ID                          : 0
Format                      : MPEG-4 Visual
Format profile              : Advanced [email protected]
Format settings             : BVOP1
Format settings, BVOP       : 1
Format settings, QPel       : No
Format settings, GMC        : No warppoints
Format settings, Matrix     : Default (H.263)
Muxing mode                 : Packed bitstream
Codec ID                    : XVID
Codec ID/Hint               : XviD
Duration                    : 1 h 49 min
Bit rate                    : 1 383 kb/s
Width                       : 720 pixels
Height                      : 400 pixels
Display aspect ratio        : 16:9
Frame rate                  : 23.976 (24000/1001) FPS
Color space                 : YUV
Chroma subsampling          : 4:2:0
Bit depth                   : 8 bits
Scan type                   : Progressive
Compression mode            : Lossy
Bits/(Pixel*Frame)          : 0.200
Stream size                 : 1.06 GiB (75%)
Writing library             : XviD 64

Audio
ID                          : 1
Format                      : AC-3
Format/Info                 : Audio Coding 3
Codec ID                    : 2000
Duration                    : 1 h 49 min
Bit rate mode               : Constant
Bit rate                    : 448 kb/s
Channel(s)                  : 6 channels
Channel positions           : Front: L C R, Side: L R, LFE
Sampling rate               : 48.0 kHz
Frame rate                  : 31.250 FPS (1536 SPF)
Bit depth                   : 16 bits
Compression mode            : Lossy
Stream size                 : 351 MiB (24%)
Alignment                   : Split accross interleaves
Interleave, duration        : 64  ms (1.53 video frames)
Interleave, preload duratio : 500  ms
Service kind                : Complete Main

 


usDrZmS.png

https://www.imdb.com/title/tt6269368/

 


YsK48dD.png

hsp9fZM.png

 

Hidden Content

  • Give reaction or reply to this topic to see the hidden content.

 


eCmryx5.png

 

Hidden Content

  • Give reaction or reply to this topic to see the hidden content.

 

Va48KiA.png

 

Hidden Content

  • Give reaction or reply to this topic to see the hidden content.

 

 

:hi:

Μοιράσου αυτή την δημοσίευση


Link to post
Share on other sites

Δημιουργήστε ένα λογαριασμό ή συνδεθείτε προκειμένου να αφήσετε κάποιο σχόλιο

Πρέπει να είστε μέλος για να μπορέσετε να αφήσετε κάποιο σχόλιο

Δημιουργία λογαριασμού

Κάντε μια δωρεάν εγγραφή στην κοινότητά μας. Είναι εύκολο!

Εγγραφή νέου λογαριασμού

Σύνδεση

Εάν έχετε ήδη λογαριασμό; Συνδεθείτε εδώ.

Συνδεθείτε τώρα

×