Μετάβαση στο περιεχόμενο
loufjohn

SURVIVOR ΕΛΛΑΔΑ-ΤΟΥΡΚΙΑ (2019) SKAI WEBRip AVI ΕΩΣ 35

Recommended Posts

SURVIVOR ΕΛΛΑΔΑ-ΤΟΥΡΚΙΑ (2019) SKAI WEBRip AVI


jZyCVl6l.jpg


IaXZX9E.png


Το αυθεντικό ριάλιτι επιβίωσης επιστρέφει. Δύο ομάδες: ΕΛΛΑΔΑ – ΤΟΥΡΚΙΑ.

Με 12 παίκτες η κάθε ομάδα. Όλοι είναι έτοιμοι να δώσουν τον καλύτερο τους εαυτό για να επιβιώσουν στις παραλίες του Άγιου Δομίνικου. Από αυτές τις δύο ομάδες μόνο
ένας διαγωνιζόμενος θα είναι αυτός που θα επικρατήσει στο τέλος και θα είναι ο νικητής που θα λάβει το μεγάλο έπαθλο.

Κατά τη διάρκεια της διαμονής τους στο εξωτικό νησί οι διαγωνιζόμενοι θα συμμετέχουν σε απαιτητικά παιχνίδια και δοκιμασίες, με αποτέλεσμα να δοκιμαστούν όχι
μόνο οι σωματικές αντοχές τους αλλά και οι ψυχικές ώστε να διασφαλίσουν μια θέση στο παιχνίδι. Με τις πιο σύγχρονες τεχνολογίες το κοινό θα είναι σε θέση
να παρακολουθεί τους διαγωνιζόμενους σε κάθε τους κίνηση, στην προσπάθειά τους να ξεπεράσουν τα εμπόδια και τους συμπαίκτες τους, για να φτάσουν στον έναν
και μοναδικό «Survivor».

Παρουσίαση: Σάκης Τανιμανίδης.

2V9nbDH.png

6KTXyhc.png

zbdCkFMl.jpg

sNfCVWD.png

General

Complete name                  : Survivor.2019.EP.01.avi
Format                         : AVI
Format/Info                    : Audio Video Interleave
File size                      : 2.71 GiB
Duration                       : 2 h 22 min
Overall bit rate               : 2 718 kb/s

Video
ID                             : 0
Format                         : AVC
Format/Info                    : Advanced Video Codec
Format profile                 : [email protected]
Format settings                : 1 Ref Frames
Format settings, CABAC         : No
Format settings, ReFrames      : 1 frame
Codec ID                       : H264
Duration                       : 2 h 22 min
Bit rate                       : 2 577 kb/s
Width                          : 1 280 pixels
Height                         : 720 pixels
Display aspect ratio           : 16:9
Frame rate                     : 25.000 FPS
Color space                    : YUV
Chroma subsampling             : 4:2:0
Bit depth                      : 8 bits
Scan type                      : Progressive
Bits/(Pixel*Frame)             : 0.112
Stream size                    : 2.57 GiB (95%)
Writing library                : x264 core 152 r2854 e9a5903

Audio
ID                             : 1
Format                         : MPEG Audio
Format version                 : Version 1
Format profile                 : Layer 3
Codec ID                       : 55
Codec ID/Hint                  : MP3
Duration                       : 2 h 22 min
Bit rate mode                  : Constant
Bit rate                       : 128 kb/s
Channel(s)                     : 2 channels
Sampling rate                  : 48.0 kHz
Compression mode               : Lossy
Stream size                    : 131 MiB (5%)
Alignment                      : Aligned on interleaves
Interleave, duration           : 24  ms (0.60 video frame)

 


     
eKydSyt.jpg


zPAQxlN.png

 

A3VtJrt.png 

Hidden Content

    Give reaction or reply to this topic to see the hidden content.

Edited by loufjohn

Μοιράσου αυτή την δημοσίευση


Link to post
Share on other sites
On 2019-02-03 at 6:14 ΠΜ, loufjohn said:

SURVIVOR ΕΛΛΑΔΑ-ΤΟΥΡΚΙΑ (2019) SKAI WEBRip AVI


jZyCVl6l.jpg


IaXZX9E.png


Το αυθεντικό ριάλιτι επιβίωσης επιστρέφει. Δύο ομάδες: ΕΛΛΑΔΑ – ΤΟΥΡΚΙΑ.

Με 12 παίκτες η κάθε ομάδα. Όλοι είναι έτοιμοι να δώσουν τον καλύτερο τους εαυτό για να επιβιώσουν στις παραλίες του Άγιου Δομίνικου. Από αυτές τις δύο ομάδες μόνο
ένας διαγωνιζόμενος θα είναι αυτός που θα επικρατήσει στο τέλος και θα είναι ο νικητής που θα λάβει το μεγάλο έπαθλο.

Κατά τη διάρκεια της διαμονής τους στο εξωτικό νησί οι διαγωνιζόμενοι θα συμμετέχουν σε απαιτητικά παιχνίδια και δοκιμασίες, με αποτέλεσμα να δοκιμαστούν όχι
μόνο οι σωματικές αντοχές τους αλλά και οι ψυχικές ώστε να διασφαλίσουν μια θέση στο παιχνίδι. Με τις πιο σύγχρονες τεχνολογίες το κοινό θα είναι σε θέση
να παρακολουθεί τους διαγωνιζόμενους σε κάθε τους κίνηση, στην προσπάθειά τους να ξεπεράσουν τα εμπόδια και τους συμπαίκτες τους, για να φτάσουν στον έναν
και μοναδικό «Survivor».

Παρουσίαση: Σάκης Τανιμανίδης.

2V9nbDH.png

6KTXyhc.png

zbdCkFMl.jpg

sNfCVWD.png

General

Complete name                  : Survivor.2019.EP.01.avi
Format                         : AVI
Format/Info                    : Audio Video Interleave
File size                      : 2.71 GiB
Duration                       : 2 h 22 min
Overall bit rate               : 2 718 kb/s

Video
ID                             : 0
Format                         : AVC
Format/Info                    : Advanced Video Codec
Format profile                 : [email protected]
Format settings                : 1 Ref Frames
Format settings, CABAC         : No
Format settings, ReFrames      : 1 frame
Codec ID                       : H264
Duration                       : 2 h 22 min
Bit rate                       : 2 577 kb/s
Width                          : 1 280 pixels
Height                         : 720 pixels
Display aspect ratio           : 16:9
Frame rate                     : 25.000 FPS
Color space                    : YUV
Chroma subsampling             : 4:2:0
Bit depth                      : 8 bits
Scan type                      : Progressive
Bits/(Pixel*Frame)             : 0.112
Stream size                    : 2.57 GiB (95%)
Writing library                : x264 core 152 r2854 e9a5903

Audio
ID                             : 1
Format                         : MPEG Audio
Format version                 : Version 1
Format profile                 : Layer 3
Codec ID                       : 55
Codec ID/Hint                  : MP3
Duration                       : 2 h 22 min
Bit rate mode                  : Constant
Bit rate                       : 128 kb/s
Channel(s)                     : 2 channels
Sampling rate                  : 48.0 kHz
Compression mode               : Lossy
Stream size                    : 131 MiB (5%)
Alignment                      : Aligned on interleaves
Interleave, duration           : 24  ms (0.60 video frame)

 


     
eKydSyt.jpg


zPAQxlN.png

 

A3VtJrt.png 

 

Hidden Content

  • Give reaction or reply to this topic to see the hidden content.

 

:good:thanks

Μοιράσου αυτή την δημοσίευση


Link to post
Share on other sites

Δημιουργήστε ένα λογαριασμό ή συνδεθείτε προκειμένου να αφήσετε κάποιο σχόλιο

Πρέπει να είστε μέλος για να μπορέσετε να αφήσετε κάποιο σχόλιο

Δημιουργία λογαριασμού

Κάντε μια δωρεάν εγγραφή στην κοινότητά μας. Είναι εύκολο!

Εγγραφή νέου λογαριασμού

Σύνδεση

Εάν έχετε ήδη λογαριασμό; Συνδεθείτε εδώ.

Συνδεθείτε τώρα

×