Μετάβαση στο περιεχόμενο
  • Enter forum

  • Enter forum

  • Enter forum

    WALK RIDE RODEO (2019) HDRip AC3 x264-CMRG | ENΣΩΜΑΤΩΜΕΝΟΙ ΥΠΟΤΙΤΛΟΙ

    вирус
    By вирус,

    efnM7tF.jpg

    ΣΚΗΝΟΘΕΣΙΑ : Conor Allyn
    ΣΕΝΑΡΙΟ : Sean Dwyer (screenplay by), Dan Goforth (story by)
    ΗΘΟΠΟΙΟΙ : Missi Pyle, Spencer Locke, Alyvia Alyn Lind
    ΕΙΔΟΣ : Drama
    ΠΡΕΜΙΕΡΑ :  8 March 2019 (USA)

    ΜΕΤΑΦΡΑΣΗ : AGNWSTOS

    Τα όνειρα της Άμπερλι Σνάιντερ (Σπένσερ Λοκ) για πανεπιστημιακές σπουδές με υποτροφία και μια επαγγελματική σταδιοδρομία στο ροντέο καταστρέφονται λόγω ενός καταστροφικού ατυχήματος.
    Τώρα, παρότι δεν μπορεί να χρησιμοποιήσει τα πόδια της, αρνείται να παραιτηθεί από τα όνειρά της και αποφασίζει να βρει τον τρόπο να λάβει πάλι μέρος σε διαγωνισμούς ροντέο. Βασισμένο στην απίστευτη αληθινή ιστορία, στο Ροντέο της Ζωής μου πρωταγωνιστούν οι Μίσι Πάιλ, Μπέιλε Τσέις, Σέρι Σέπερντ και Μαξ Έρικ. Αψηφώντας τις δυσκολίες, ένα κάουγκερλ προσπαθεί να ανέβει ξανά στο άλογό της ύστερα από ένα ατύχημα που άλλαξε τη ζωή της. Βασισμένο σε μια εμψυχωτική αληθινή ιστορία.
     

    TXT94bN.png


    3sZwobQ.png

     

     


    TEXNIKA XAΡΑΚΤΗΡΙΣΤΙΚΑ

    General
    Format                      : Matroska
    Format version              : Version 2
    File size                   : 1.32 GiB
    Duration                    : 1 h 39 min
    Overall bit rate            : 1 897 kb/s

    Video
    ID                          : 1
    Format                      : AVC
    Format/Info                 : Advanced Video Codec
    Format profile              : [email protected]
    Format settings             : CABAC / 6 Ref Frames
    Format settings, CABAC      : Yes
    Format settings, ReFrames   : 6 frames
    Codec ID                    : V_MPEG4/ISO/AVC
    Duration                    : 1 h 39 min
    Bit rate                    : 1 541 kb/s
    Width                       : 720 pixels
    Height                      : 360 pixels
    Display aspect ratio        : 2.000
    Frame rate mode             : Constant
    Frame rate                  : 24.000 FPS
    Color space                 : YUV
    Chroma subsampling          : 4:2:0
    Bit depth                   : 8 bits
    Scan type                   : Progressive
    Bits/(Pixel*Frame)          : 0.248
    Stream size                 : 1.05 GiB (80%)
    Default                     : Yes
    Forced                      : No
    Color range                 : Limited
    Color primaries             : BT.709
    Transfer characteristics    : BT.709
    Matrix coefficients         : BT.709

    Audio
    ID                          : 2
    Format                      : AC-3
    Format/Info                 : Audio Coding 3
    Codec ID                    : A_AC3
    Duration                    : 1 h 39 min
    Bit rate mode               : Constant
    Bit rate                    : 384 kb/s
    Channel(s)                  : 6 channels
    Channel positions           : Front: L C R, Side: L R, LFE
    Sampling rate               : 48.0 kHz
    Frame rate                  : 31.250 FPS (1536 SPF)
    Bit depth                   : 16 bits
    Compression mode            : Lossy
    Stream size                 : 274 MiB (20%)
    Language                    : English
    Service kind                : Complete Main
    Default                     : Yes


    usDrZmS.png

    https://www.imdb.com/title/tt5848416/


    YsK48dD.png

    hsp9fZM.png

    Hidden Content

      Give reaction or reply to this topic to see the hidden content.


    eCmryx5.png

    Hidden Content

      Give reaction or reply to this topic to see the hidden content.

    Va48KiA.png

    Hidden Content

      Give reaction or reply to this topic to see the hidden content.


    JUANITA (2019) WEBRip XviD AC3-FGT | ENΣΩΜΑΤΩΜΕΝΟΙ ΥΠΟΤΙΤΛΟΙ

    вирус
    By вирус,

    sWK2aBC.jpg

    ΣΚΗΝΟΘΕΣΙΑ : Clark Johnson
    ΣΕΝΑΡΙΟ : Roderick M. Spencer (screenplay), Sheila Williams (book)
    ΗΘΟΠΟΙΟΙ : Alfre Woodard, Ashlie Atkinson, Lindsley Register
    ΕΙΔΟΣ : Drama
    ΠΡΕΜΙΕΡΑ :  8 March 2019 (USA)

    ΜΕΤΑΦΡΑΣΗ : AGNWSTOS

    Πρόκειται ουσιαστικά για την κινηματογραφική διασκευή του μυθιστορήματος της “Dancing on the Edge of the Roof” της Sheila Williams. Η όλη πλοκή εστιάζει στην μεσήλικη μητέρα τριών ενήλικων παιδιών καθένα από τα οποία έχει τραβήξει τον δικό του δρόμο, κάτι που πλέον νιώθει την ανάγκη να κάνει και η ίδια. Αποφασίζει λοιπόν, να πραγματοποιήσει μόνη της ένα ταξίδι αναψυχής στο Butte της Montana. Εκεί θα γνωρίσει καινούργια άτομα και θα αποκομίσει πολύτιμες εμπειρίες ενώ θα ξαναθυμηθεί πώς κάποια πράγματα δεν παύουν ποτέ να δίνουν νόημα και κίνητρο στην ανθρώπινη ύπαρξη.

    ur1ymYX.png


    3sZwobQ.png

     

     


    TEXNIKA XAΡΑΚΤΗΡΙΣΤΙΚΑ

    General
    Format                      : AVI
    Format/Info                 : Audio Video Interleave
    File size                   : 1.24 GiB
    Duration                    : 1 h 30 min
    Overall bit rate            : 1 966 kb/s
    Writing application         : VirtualDubMod 1.5.10.2 (build 2542/release)
    Writing library             : VirtualDubMod build 2542/release

    Video
    ID                          : 0
    Format                      : MPEG-4 Visual
    Format profile              : Advanced [email protected]
    Format settings             : BVOP1
    Format settings, BVOP       : 1
    Format settings, QPel       : No
    Format settings, GMC        : No warppoints
    Format settings, Matrix     : Default (H.263)
    Muxing mode                 : Packed bitstream
    Codec ID                    : XVID
    Codec ID/Hint               : XviD
    Duration                    : 1 h 30 min
    Bit rate                    : 1 574 kb/s
    Width                       : 720 pixels
    Height                      : 304 pixels
    Display aspect ratio        : 2.35:1
    Frame rate                  : 23.976 (24000/1001) FPS
    Color space                 : YUV
    Chroma subsampling          : 4:2:0
    Bit depth                   : 8 bits
    Scan type                   : Progressive
    Compression mode            : Lossy
    Bits/(Pixel*Frame)          : 0.300
    Stream size                 : 1 014 MiB (80%)
    Writing library             : XviD 64

    Audio
    ID                          : 1
    Format                      : AC-3
    Format/Info                 : Audio Coding 3
    Codec ID                    : 2000
    Duration                    : 1 h 30 min
    Bit rate mode               : Constant
    Bit rate                    : 384 kb/s
    Channel(s)                  : 6 channels
    Channel positions           : Front: L C R, Side: L R, LFE
    Sampling rate               : 48.0 kHz
    Frame rate                  : 31.250 FPS (1536 SPF)
    Bit depth                   : 16 bits
    Compression mode            : Lossy
    Stream size                 : 247 MiB (20%)
    Alignment                   : Split accross interleaves
    Interleave, duration        : 64  ms (1.53 video frames)
    Interleave, preload duratio : 500  ms
    Service kind                : Complete Main


    usDrZmS.png

    https://www.imdb.com/title/tt6155456/


    YsK48dD.png

    hsp9fZM.png

    Hidden Content

      Give reaction or reply to this topic to see the hidden content.


    eCmryx5.png

    Hidden Content

      Give reaction or reply to this topic to see the hidden content.

    Va48KiA.png

    Hidden Content

      Give reaction or reply to this topic to see the hidden content.


    ΜΑΝΩΛΑΚΗΣ ΓΙΩΡΓΗΣ & ΣΙΔΗΡΟΚΑΣΤΡΙΤΗΣ ΝΙΚΟΣ - ΝΕΦΑΛΟ (2017)

    President
    By President,

    JNqy1qc.jpg

     


    Artist: Μανωλάκης Γιώργης & Σιδηροκαστρίτης Νίκος
    Album: Νέφαλο
    Year: 2017
    Tracks: 10
    Size: 156.5 MB
    Codec: Mp3 / 320 kbps
    Covers: Full

     

    HjBdt.png

     

    01. Μέγαρα
    02. Ακούστε μιαν ερώτηση
    03. Ζωή και θάνατος
    04. Ο ήχος του μαντολίνου
    05. Κοντυλιές
    06. Νέφαλο
    07. Ο πόνος
    08. Συρτά Τσέγκα
    09. Όσο βαρούν τα σίδερα
    10. Αυτοσχεδιασμός με ηλεκτρική κιθάρα

     

    RmY8Z.png

    Hidden Content

      Give reaction or reply to this topic to see the hidden content.

     

    MCFyYyM.png

    Hidden Content

      Give reaction or reply to this topic to see the hidden content.

     

    • 15 απαντήσεις
    • 131 views
    • Add Reply

    ΚΟΥΜΠΑΝΑΚΗΣ ΓΙΩΡΓΟΣ & ΚΑΤΣΙΝΗΣ ΜΗΤΣΟΣ - ΝΕΟΙ ΔΡΟΜΟΙ (LP) (1981)

    President
    By President,

    Rmdn8Nv.jpg

     

    Artist: Σκουλάς Δημήτρης & Γρηγοράκη Εύα
    Album: Νέοι Δρόμοι
    Year: 1981
    Tracks: 10
    Size: 47.9 MB
    Codec: Mp3 / 192 kbps
    Covers: Front&Back

     

    HjBdt.png

     

    Back Cover: Here

     

    RmY8Z.png

    Hidden Content

      Give reaction or reply to this topic to see the hidden content.

     

    MCFyYyM.png

    Hidden Content

      Give reaction or reply to this topic to see the hidden content.


    ΜΑΝΩΛΑΚΗΣ ΓΙΩΡΓΗΣ & ΣΤΑΥΡΑΚΑΚΗΣ ΜΗΤΣΟΣ - ΤΑ ΠΡΕΠΕΙ ΔΕ ΜΟΥ ΠΡΕΠΟΥΝΕ (05/2018)

    President
    By President,

    rNWPyfb.jpg

     

    Artist: Μανωλάκης Γιώργης & Σταυρακάκης Μήτσος
    Album: Τα πρέπει δε μου πρέπουνε
    Year: 2018
    Tracks: 11
    Size: 184.6 MB
    Codec: Mp3 / 320 kbps
    Covers: Full&Book

     

    HjBdt.png


    Back Cover: Here

     

    RmY8Z.png

    Hidden Content

      Give reaction or reply to this topic to see the hidden content.

     

    MCFyYyM.png

    Hidden Content

      Give reaction or reply to this topic to see the hidden content.

    • 15 απαντήσεις
    • 169 views
    • Add Reply

Portal by DevFuse · Based on IP.Board Portal by IPS
×