Μετάβαση στο περιεχόμενο
  • Enter forum

  • Enter forum

  • Enter forum

    REPLICAS (2018) BDRip XviD AC3-EVO | ENΣΩΜΑΤΩΜΕΝΟΙ ΥΠΟΤΙΤΛΟΙ

    вирус
    By вирус,

    JJY9P09.jpg

    ΣΚΗΝΟΘΕΣΙΑ : Jeffrey Nachmanoff
    ΣΕΝΑΡΙΟ : Chad St. John (screenplay by), Stephen Hamel (story by)
    ΗΘΟΠΟΙΟΙ : Alice Eve, Keanu Reeves, Emily Alyn Lind 
    ΕΙΔΟΣ : Crime, Mystery, Sci-Fi 
    ΠΡΕΜΙΕΡΑ : 23 November 2018 (China)

    ΜΕΤΑΦΡΑΣΗ : DROOPY

    Ένας νευροεπιστήμονας, ο ‘William Foster’ (Keanu Reeves) βρίσκεται μπροστά σε μία κοσμοϊστορική ανακάλυψη, όταν ξαφνικά αναπάντεχα χάνει την οικογένειά του σε ένα θανατηφόρο δυστύχημα. Μέσα στην απόγνωσή του ο ήρωας πασχίζει να τους επαναφέρει στην ζωή. Αποφασίζει λοιπόν, να πάει παρακάτω την έρευνά του για την μεταφορά της ανθρώπινης συνείδησης σε ένα ρομπότ, απευθυνόμενος και σε έναν συνέταιρό του, τον ‘Ed Whittle’ (Thomas Middleditch) για να τον συνδράμει στην απόπειρά του να δημιουργήσουν όμοια αντίγραφα των οικείων του που απεβίωσαν. Εντούτοις, διαπιστώνει ότι η ελεύθερη επιλογή δεν επιδέχεται καμία διαδικασία αλλοίωσης ή κλωνοποίησης χωρίς καταστροφικές συνέπειες.

    m1oJRHs.png


    3sZwobQ.png

     

     


    TEXNIKA XAΡΑΚΤΗΡΙΣΤΙΚΑ

    General
    Format                      : AVI
    Format/Info                 : Audio Video Interleave
    File size                   : 1.26 GiB
    Duration                    : 1 h 47 min
    Overall bit rate            : 1 684 kb/s
    Writing application         : VirtualDubMod 1.5.10.2 (build 2542/release)
    Writing library             : VirtualDubMod build 2542/release

    Video
    ID                          : 0
    Format                      : MPEG-4 Visual
    Format profile              : Advanced [email protected]
    Format settings             : BVOP1
    Format settings, BVOP       : 1
    Format settings, QPel       : No
    Format settings, GMC        : No warppoints
    Format settings, Matrix     : Default (H.263)
    Muxing mode                 : Packed bitstream
    Codec ID                    : XVID
    Codec ID/Hint               : XviD
    Duration                    : 1 h 47 min
    Bit rate                    : 1 292 kb/s
    Width                       : 720 pixels
    Height                      : 304 pixels
    Display aspect ratio        : 2.35:1
    Frame rate                  : 23.976 (24000/1001) FPS
    Color space                 : YUV
    Chroma subsampling          : 4:2:0
    Bit depth                   : 8 bits
    Scan type                   : Progressive
    Compression mode            : Lossy
    Bits/(Pixel*Frame)          : 0.246
    Stream size                 : 991 MiB (77%)
    Writing library             : XviD 64

    Audio
    ID                          : 1
    Format                      : AC-3
    Format/Info                 : Audio Coding 3
    Codec ID                    : 2000
    Duration                    : 1 h 47 min
    Bit rate mode               : Constant
    Bit rate                    : 384 kb/s
    Channel(s)                  : 6 channels
    Channel positions           : Front: L C R, Side: L R, LFE
    Sampling rate               : 48.0 kHz
    Frame rate                  : 31.250 FPS (1536 SPF)
    Bit depth                   : 16 bits
    Compression mode            : Lossy
    Stream size                 : 295 MiB (23%)
    Alignment                   : Split accross interleaves
    Interleave, duration        : 64  ms (1.53 video frames)
    Interleave, preload duratio : 500  ms
    Service kind                : Complete Main


    usDrZmS.png

    https://www.imdb.com/title/tt4154916/


    YsK48dD.png

    hsp9fZM.png

    Hidden Content

      Give reaction or reply to this topic to see the hidden content.


    eCmryx5.png

    Hidden Content

      Give reaction or reply to this topic to see the hidden content.

    Va48KiA.png

    Hidden Content

      Give reaction or reply to this topic to see the hidden content.

    • 17 απαντήσεις
    • 225 views
    • Add Reply

    ΑΙΓΑΙΟ SOS (2018) HDTv

    POPITSAKOSTIS
    By POPITSAKOSTIS,

    ZjawJpZh.jpg

    ΑΙΓΑΙΟ SOS (2018) HDTv

    Σκηνοθεσία: Πιέρρος Ανδρακάκος
    Ηθοποιοί: Θοδωρής Αθερίδης, Πάνος Βλάχος, Ευαγγελία Συριοπούλου, Μιχάλης Λεβεντογιάννης, Κωνσταντίνος Μπιμπής, Nina Senicar, Νίκος Μίχας, Κωνσταντίνος Γεωργαλής, Σοφία Παυλίδου, Jerome Kaluta, Δήμητρα Κολλά, Κωνσταντίνος Μουταφτσής, Γιάννης Ζωγράφος, Κωνσταντίνος Αρνόκουρος, Fu Yin
    Είδος: Κωμωδία, Περιπέτεια
    Ημερομηνία Εξόδου: 15 Νοεμβρίου 2018

    Υπόθεση:

    Καλοκαίρι 2018. Ελληνικές και τουρκικές φρεγάτες οργώνουν το Αιγαίο. Ένας μεγάλος σεισμός όμως φέρνει στην επιφάνεια μια βραχονησίδα σε διεθνή χωρικά ύδατα. Έλληνες και Τούρκοι στέλνουν άμεσα στρατεύματα για να καταλάβουν το νησί. H κάθε διμοιρία καταλαμβάνει περίπου… από μισό. Τα αστεία αλλά και σοβαρά περιστατικά μεταξύ Ελλήνων και Τούρκων δεν αργούν να πάρουν διαστάσεις τσουνάμι.

    ZcVJzDwh.jpg

    [video]https://www.youtube.com/watch?v=_b6NcbB24G8[/video]

    https://www.imdb.com/title/tt9030432/
    http://www.cine.gr/film.asp?id=723707

    ΤΕΧΝΙΚΑ ΧΑΡΑΚΤΗΡΙΣΤΙΚΑ


    General
    Complete name               : AIGAIO SOS (2018) HDTV.mkv
    Format                      : Matroska
    Format version              : Version 4
    File size                   : 1.43 GiB
    Duration                    : 1 h 31 min
    Overall bit rate mode       : Variable
    Overall bit rate            : 2 227 kb/s
    Encoded date                : UTC 2019-03-10 17:37:06
    Writing application         : mkvmerge v22.0.0 ('At The End Of The World') 32-bit
    Writing library             : libebml v1.3.5 + libmatroska v1.4.8

    Video
    ID                          : 1
    Format                      : AVC
    Format/Info                 : Advanced Video Codec
    Format profile              : [email protected]
    Format settings             : CABAC / 1 Ref Frames
    Format settings, CABAC      : Yes
    Format settings, ReFrames   : 1 frame
    Format settings, GOP        : M=3, N=24
    Muxing mode                 : Container [email protected]
    Codec ID                    : V_MPEG4/ISO/AVC
    Duration                    : 1 h 31 min
    Bit rate mode               : Variable
    Bit rate                    : 1 982 kb/s
    Maximum bit rate            : 3 000 kb/s
    Width                       : 720 pixels
    Height                      : 400 pixels
    Display aspect ratio        : 16:9
    Frame rate mode             : Constant
    Frame rate                  : 25.000 FPS
    Color space                 : YUV
    Chroma subsampling          : 4:2:0
    Bit depth                   : 8 bits
    Scan type                   : Progressive
    Bits/(Pixel*Frame)          : 0.275
    Stream size                 : 1.27 GiB (89%)
    Default                     : Yes
    Forced                      : No

    Audio
    ID                          : 2
    Format                      : AAC LC
    Format/Info                 : Advanced Audio Codec Low Complexity
    Codec ID                    : A_AAC-2
    Duration                    : 1 h 31 min
    Bit rate                    : 243 kb/s
    Channel(s)                  : 2 channels
    Channel layout              : L R
    Sampling rate               : 48.0 kHz
    Frame rate                  : 46.875 FPS (1024 SPF)
    Compression mode            : Lossy
    Delay relative to video     : -40 ms
    Stream size                 : 159 MiB (11%)
    Default                     : Yes
    Forced                      : No


    qO4Dexcl.png

    Hidden Content

      Give reaction or reply to this topic to see the hidden content.

    • 108 απαντήσεις
    • 849 views
    • Add Reply

    INSTANT FAMILY (2018) BRRip XviD AC3-JEDi | ENΣΩΜΑΤΩΜΕΝΟΙ ΥΠΟΤΙΤΛΟΙ

    вирус
    By вирус,

    sFuVWVy.jpg

    ΣΚΗΝΟΘΕΣΙΑ : Sean Anders
    ΣΕΝΑΡΙΟ : Sean Anders
    ΗΘΟΠΟΙΟΙ : Mark Wahlberg, Rose Byrne, Isabela Moner
    ΕΙΔΟΣ : Comedy, Drama 
    ΠΡΕΜΙΕΡΑ : 21 March 2019 (Greece)

    ΜΕΤΑΦΡΑΣΗ : Calamity Jane

    Όταν ο Πιτ (Μαρκ Γουόλμπεργκ) και η Έλι (Ρόουζ Μπερν) αποφασίζουν να κάνουν οικογένεια, εξετάζουν την επιλογή της υιοθεσίας. Όταν θα γνωρίσουν τρία αδέρφια, συμπεριλαμβανομένης μιας 15χρονης που κάνει την επανάστασή της (Ιζαμπέλα Μόνερ), θα διαπιστώσουν ότι από εκεί που δεν είχαν κανένα παιδί βρέθηκαν μέσα σε μια νύχτα με τρία. Τώρα, ο Πιτ και η Έλι θα προσπαθήσουν να μάθουν τα κατατόπια του να είσαι γονιός με ξεκαρδιστικό τρόπο με την ελπίδα να γίνουν οικογένεια.

    uzZNLeO.png


    3sZwobQ.png

     

     


    TEXNIKA XAΡΑΚΤΗΡΙΣΤΙΚΑ

    General
    Format                      : AVI
    Format/Info                 : Audio Video Interleave
    Format profile              : OpenDML
    File size                   : 2.12 GiB
    Duration                    : 1 h 58 min
    Overall bit rate            : 2 575 kb/s
    Writing application         : VirtualDubMod 1.5.10.2 (build 2542/release)
    Writing library             : VirtualDubMod build 2542/release

    Video
    ID                          : 0
    Format                      : MPEG-4 Visual
    Format profile              : Advanced [email protected]
    Format settings             : BVOP1
    Format settings, BVOP       : 1
    Format settings, QPel       : No
    Format settings, GMC        : No warppoints
    Format settings, Matrix     : Default (H.263)
    Muxing mode                 : Packed bitstream
    Codec ID                    : XVID
    Codec ID/Hint               : XviD
    Duration                    : 1 h 58 min
    Bit rate                    : 2 117 kb/s
    Width                       : 848 pixels
    Height                      : 352 pixels
    Display aspect ratio        : 2.40:1
    Frame rate                  : 23.976 (24000/1001) FPS
    Color space                 : YUV
    Chroma subsampling          : 4:2:0
    Bit depth                   : 8 bits
    Scan type                   : Progressive
    Compression mode            : Lossy
    Bits/(Pixel*Frame)          : 0.296
    Stream size                 : 1.75 GiB (82%)
    Writing library             : XviD 64

    Audio
    ID                          : 1
    Format                      : AC-3
    Format/Info                 : Audio Coding 3
    Codec ID                    : 2000
    Duration                    : 1 h 58 min
    Bit rate mode               : Constant
    Bit rate                    : 448 kb/s
    Channel(s)                  : 6 channels
    Channel positions           : Front: L C R, Side: L R, LFE
    Sampling rate               : 48.0 kHz
    Frame rate                  : 31.250 FPS (1536 SPF)
    Bit depth                   : 16 bits
    Compression mode            : Lossy
    Stream size                 : 378 MiB (17%)
    Alignment                   : Split accross interleaves
    Interleave, duration        : 64  ms (1.53 video frames)
    Interleave, preload duratio : 500  ms


    usDrZmS.png

    https://www.imdb.com/title/tt7401588/


    YsK48dD.png

    hsp9fZM.png

    Hidden Content

      Give reaction or reply to this topic to see the hidden content.


    eCmryx5.png

    Hidden Content

      Give reaction or reply to this topic to see the hidden content.

    Va48KiA.png

    Hidden Content

      Give reaction or reply to this topic to see the hidden content.

    • 33 απαντήσεις
    • 336 views
    • Add Reply

    LADY J / MADEMOISELLE DE JONCQUIERES (2018) FRENCH HDRiP XViD-GHOSTSPiRiT | ENΣΩΜΑΤ/ΥΠΟΤ

    вирус
    By вирус,

    rlE7sNw.jpg

    ΣΚΗΝΟΘΕΣΙΑ : Emmanuel Mouret
    ΣΕΝΑΡΙΟ : Denis Diderot (novel), Emmanuel Mouret (screenplay)
    ΗΘΟΠΟΙΟΙ : Cécile de France, Edouard Baer, Alice Isaaz 
    ΕΙΔΟΣ : Drama, Romance
    ΠΡΕΜΙΕΡΑ : 12 September 2018 (France)

    ΜΕΤΑΦΡΑΣΗ : Ελένη Αθανασάτου

    Όταν το ειδύλλιό της μ' έναν αχόρταγο μαρκήσιο αλλάζει ξαφνικά τροπή, μια πλούσια χήρα στήνει σκευωρία για να πάρει εκδίκηση. Στο πλευρό της έχει μια νεότερη γυναίκα.

    wghnu0Y.png


    3sZwobQ.png

     

     


    TEXNIKA XAΡΑΚΤΗΡΙΣΤΙΚΑ

    General
    Format                      : AVI
    Format/Info                 : Audio Video Interleave
    File size                   : 709 MiB
    Duration                    : 1 h 50 min
    Overall bit rate            : 901 kb/s
    Writing library             : VirtualDub build 32661/release

    Video
    ID                          : 0
    Format                      : MPEG-4 Visual
    Format profile              : Advanced [email protected]
    Format settings             : BVOP1
    Format settings, BVOP       : 1
    Format settings, QPel       : No
    Format settings, GMC        : No warppoints
    Format settings, Matrix     : Default (H.263)
    Muxing mode                 : Packed bitstream
    Codec ID                    : XVID
    Codec ID/Hint               : XviD
    Duration                    : 1 h 50 min
    Bit rate                    : 763 kb/s
    Width                       : 720 pixels
    Height                      : 356 pixels
    Display aspect ratio        : 2.022
    Frame rate                  : 25.000 FPS
    Color space                 : YUV
    Chroma subsampling          : 4:2:0
    Bit depth                   : 8 bits
    Scan type                   : Progressive
    Compression mode            : Lossy
    Bits/(Pixel*Frame)          : 0.119
    Stream size                 : 601 MiB (85%)
    Writing library             : XviD 64

    Audio
    ID                          : 1
    Format                      : MPEG Audio
    Format version              : Version 1
    Format profile              : Layer 3
    Format settings             : Joint stereo / MS Stereo
    Codec ID                    : 55
    Codec ID/Hint               : MP3
    Duration                    : 1 h 50 min
    Bit rate mode               : Constant
    Bit rate                    : 128 kb/s
    Channel(s)                  : 2 channels
    Sampling rate               : 48.0 kHz
    Frame rate                  : 41.667 FPS (1152 SPF)
    Compression mode            : Lossy
    Stream size                 : 101 MiB (14%)
    Alignment                   : Split accross interleaves
    Interleave, duration        : 40  ms (1.00 video frame)
    Interleave, preload duratio : 500  ms
    Writing library             : LAME3.98.2


    usDrZmS.png

    https://www.imdb.com/title/tt7530986/


    YsK48dD.png

    hsp9fZM.png

    Hidden Content

      Give reaction or reply to this topic to see the hidden content.


    eCmryx5.png

    Hidden Content

      Give reaction or reply to this topic to see the hidden content.

    • 13 απαντήσεις
    • 262 views
    • Add Reply

    TOY GUN (2018) HDRip XviD AC3-EVO | ENΣΩΜΑΤΩΜΕΝΟΙ ΥΠΟΤΙΤΛΟΙ

    вирус
    By вирус,

    JX5KRB9.jpg

    ΣΚΗΝΟΘΕΣΙΑ : Marco Serafini
    ΣΕΝΑΡΙΟ : Marco Serafini, Vince Villani
    ΗΘΟΠΟΙΟΙ : Luke Allen-Gale, Federico Castelluccio, John Hannah
    ΕΙΔΟΣ : Action, Comedy, Crime
    ΠΡΕΜΙΕΡΑ : 1 January 2018 (USA)

    ΜΕΤΑΦΡΑΣΗ : jokergirl

    Το Toy Gun είναι μια αστεία σκοτεινή κωμωδία για έναν χαρακτήρα που κοιτάζει να δείξει στον κόσμο την απόγνωση που έχει όταν η πρώην σύζυγός του τον άφησε.

    Wi6WaWK.png


    3sZwobQ.png

     

     


    TEXNIKA XAΡΑΚΤΗΡΙΣΤΙΚΑ

    General
    Format                      : AVI
    Format/Info                 : Audio Video Interleave
    File size                   : 1.35 GiB
    Duration                    : 1 h 43 min
    Overall bit rate            : 1 871 kb/s
    Writing application         : VirtualDubMod 1.5.10.2 (build 2542/release)
    Writing library             : VirtualDub build 32661/release

    Video
    ID                          : 0
    Format                      : MPEG-4 Visual
    Format profile              : Advanced [email protected]
    Format settings             : BVOP1
    Format settings, BVOP       : 1
    Format settings, QPel       : No
    Format settings, GMC        : No warppoints
    Format settings, Matrix     : Default (H.263)
    Muxing mode                 : Packed bitstream
    Codec ID                    : XVID
    Codec ID/Hint               : XviD
    Duration                    : 1 h 43 min
    Bit rate                    : 1 670 kb/s
    Width                       : 720 pixels
    Height                      : 304 pixels
    Display aspect ratio        : 2.35:1
    Frame rate                  : 23.976 (24000/1001) FPS
    Color space                 : YUV
    Chroma subsampling          : 4:2:0
    Bit depth                   : 8 bits
    Scan type                   : Progressive
    Compression mode            : Lossy
    Bits/(Pixel*Frame)          : 0.318
    Stream size                 : 1.20 GiB (89%)
    Writing library             : XviD 64

    Audio
    ID                          : 1
    Format                      : AC-3
    Format/Info                 : Audio Coding 3
    Codec ID                    : 2000
    Duration                    : 1 h 43 min
    Bit rate mode               : Constant
    Bit rate                    : 192 kb/s
    Channel(s)                  : 6 channels
    Channel positions           : Front: L C R, Side: L R, LFE
    Sampling rate               : 48.0 kHz
    Frame rate                  : 31.250 FPS (1536 SPF)
    Bit depth                   : 16 bits
    Compression mode            : Lossy
    Stream size                 : 142 MiB (10%)
    Alignment                   : Split accross interleaves
    Interleave, duration        : 42  ms (1.00 video frame)
    Interleave, preload duratio : 500  ms
    Service kind                : Complete Main


    usDrZmS.png

    https://www.imdb.com/title/tt5420870/


    YsK48dD.png

    hsp9fZM.png

    Hidden Content

      Give reaction or reply to this topic to see the hidden content.


    eCmryx5.png

    Hidden Content

      Give reaction or reply to this topic to see the hidden content.

    Va48KiA.png

    Hidden Content

      Give reaction or reply to this topic to see the hidden content.


Portal by DevFuse · Based on IP.Board Portal by IPS
×