Μετάβαση στο περιεχόμενο
  • Enter forum

  • Enter forum

  • Enter forum

    WILDLIFE (2018) BDRip XviD AC3-EVO | ENΣΩΜΑΤΩΜΕΝΟΙ ΥΠΟΤΙΤΛΟΙ

    вирус
    By вирус,

    Ungrkvy.jpg

    ΣΚΗΝΟΘΕΣΙΑ : Paul Dano
    ΣΕΝΑΡΙΟ : Paul Dano (screenplay by), Zoe Kazan
    ΗΘΟΠΟΙΟΙ : Jake Gyllenhaal, Carey Mulligan, Ed Oxenbould 
    ΕΙΔΟΣ :  Drama 
    ΠΡΕΜΙΕΡΑ : 13 December 2018 (Greece)

    ΜΕΤΑΦΡΑΣΗ : Drakman

    Ο Τζέρι (Jake Gyllenhaal), η Τζην (Carey Mulligan) και ο 14χρονος Τζο (Ed Oxenbould) αποτελούν μια κλασική αμερικανική οικογένεια της δεκαετίας του ’60. Ο άντρας πρέπει να δουλεύει, η γυναίκα να μεγαλώνει το παιδί και ο γιος να παίζει φούτμπολ στο σχολείο. Ήμαστε, όμως, σε μια δεκαετία που όλα αλλάζουν στην Αμερική: οι οικογενειακές ισορροπίες, ο ρόλος των φύλων, ακόμα και ο ορισμός της ευτυχίας. Όταν ο Τζέρι μένει άνεργος, η Τζέην και ο Τζο πιάνουν δουλειές και ο εγωισμός του «άντρα του σπιτιού» πληγώνεται σε τέτοιο βαθμό που απομακρύνεται -κυριολεκτικά και μεταφορικά- από την οικογένειά του. Ο Τζο περιμένει την επιστροφή του πατέρα του, ειδικά όταν βλέπει την καινούρια συμπεριφορά της μητέρας του. Συναναστρέφεται όλο και περισσότερο με τον καινούριο φίλο της (Bill Camp), αποζητώντας σταθερότητα και συντροφιά.

    5DeZhEX.png


    3sZwobQ.png

     

     


    TEXNIKA XAΡΑΚΤΗΡΙΣΤΙΚΑ

    General
    Format                      : Matroska
    Format version              : Version 2
    File size                   : 1.37 GiB
    Duration                    : 1 h 44 min
    Overall bit rate            : 1 866 kb/s

    Video
    ID                          : 1
    Format                      : AVC
    Format/Info                 : Advanced Video Codec
    Format profile              : [email protected]
    Format settings             : CABAC / 4 Ref Frames
    Format settings, CABAC      : Yes
    Format settings, ReFrames   : 4 frames
    Codec ID                    : V_MPEG4/ISO/AVC
    Duration                    : 1 h 44 min
    Bit rate                    : 1 416 kb/s
    Width                       : 720 pixels
    Height                      : 384 pixels
    Display aspect ratio        : 1.85:1
    Frame rate mode             : Constant
    Frame rate                  : 23.976 (24000/1001) FPS
    Color space                 : YUV
    Chroma subsampling          : 4:2:0
    Bit depth                   : 8 bits
    Scan type                   : Progressive
    Bits/(Pixel*Frame)          : 0.214
    Stream size                 : 1.01 GiB (74%)
    Writing library             : x264 core 148 r2638 7599210

    Audio
    ID                          : 2
    Format                      : AC-3
    Format/Info                 : Audio Coding 3
    Codec ID                    : A_AC3
    Duration                    : 1 h 44 min
    Bit rate mode               : Constant
    Bit rate                    : 448 kb/s
    Channel(s)                  : 6 channels
    Channel positions           : Front: L C R, Side: L R, LFE
    Sampling rate               : 48.0 kHz
    Frame rate                  : 31.250 FPS (1536 SPF)
    Bit depth                   : 16 bits
    Compression mode            : Lossy
    Stream size                 : 336 MiB (24%)
    Service kind                : Complete Main
    Default                     : Yes
    Forced                      : No


    usDrZmS.png

    https://www.imdb.com/title/tt5929754/


    YsK48dD.png

    hsp9fZM.png

    Hidden Content

      Give reaction or reply to this topic to see the hidden content.


    eCmryx5.png

    Hidden Content

      Give reaction or reply to this topic to see the hidden content.

    Va48KiA.png

    Hidden Content

      Give reaction or reply to this topic to see the hidden content.


    AQUAMAN (2018) IMAX BRRip XviD AC3-EVO | ENΣΩΜΑΤΩΜΕΝΟΙ ΥΠΟΤΙΤΛΟΙ

    вирус
    By вирус,

    4JISsV3.jpg

    ΣΚΗΝΟΘΕΣΙΑ : James Wan
    ΣΕΝΑΡΙΟ : David Leslie Johnson-McGoldrick (screenplay by), Will Beall 
    ΗΘΟΠΟΙΟΙ : Jason Momoa, Amber Heard, Willem Dafoe
    ΕΙΔΟΣ : Action, Adventure, Fantasy
    ΠΡΕΜΙΕΡΑ : 13 December 2018 (Greece)

    ΜΕΤΑΦΡΑΣΗ : TheQueen

    Η ιστορία αποκαλύπτει την προέλευση του μισού-ανθρώπου, μισού-Ατλάντειου Άρθουρ Κάρι και εξερευνά το ταξίδι της ζωής του - ένα ταξίδι που δεν θα τον αναγκάσει απλώς να αντικρίσει τον πραγματικό του εαυτό, αλλά να ανακαλύψει αν είναι άξιος να γίνει αυτός που γεννήθηκε... Να γίνει ένας βασιλιάς!.

    HLTXNtk.png


    3sZwobQ.png

     

     


    TEXNIKA XAΡΑΚΤΗΡΙΣΤΙΚΑ

    General
    Format                      : AVI
    Format/Info                 : Audio Video Interleave
    File size                   : 1.49 GiB
    Duration                    : 2 h 23 min
    Overall bit rate            : 1 492 kb/s
    Writing application         : VirtualDubMod 1.5.10.2 (build 2542/release)
    Writing library             : VirtualDubMod build 2542/release

    Video
    ID                          : 0
    Format                      : MPEG-4 Visual
    Format profile              : Advanced [email protected]
    Format settings             : BVOP1
    Format settings, BVOP       : 1
    Format settings, QPel       : No
    Format settings, GMC        : No warppoints
    Format settings, Matrix     : Default (H.263)
    Muxing mode                 : Packed bitstream
    Codec ID                    : XVID
    Codec ID/Hint               : XviD
    Duration                    : 2 h 23 min
    Bit rate                    : 1 100 kb/s
    Width                       : 720 pixels
    Height                      : 400 pixels
    Display aspect ratio        : 16:9
    Frame rate                  : 23.976 (24000/1001) FPS
    Color space                 : YUV
    Chroma subsampling          : 4:2:0
    Bit depth                   : 8 bits
    Scan type                   : Progressive
    Compression mode            : Lossy
    Bits/(Pixel*Frame)          : 0.159
    Stream size                 : 1.10 GiB (74%)
    Writing library             : XviD 64

    Audio
    ID                          : 1
    Format                      : AC-3
    Format/Info                 : Audio Coding 3
    Codec ID                    : 2000
    Duration                    : 2 h 23 min
    Bit rate mode               : Constant
    Bit rate                    : 384 kb/s
    Channel(s)                  : 6 channels
    Channel positions           : Front: L C R, Side: L R, LFE
    Sampling rate               : 48.0 kHz
    Frame rate                  : 31.250 FPS (1536 SPF)
    Bit depth                   : 16 bits
    Compression mode            : Lossy
    Stream size                 : 394 MiB (26%)
    Alignment                   : Split accross interleaves
    Interleave, duration        : 64  ms (1.53 video frames)
    Interleave, preload duratio : 500  ms
    Service kind                : Complete Main


    usDrZmS.png

    https://www.imdb.com/title/tt1477834/


    YsK48dD.png

    hsp9fZM.png

    Hidden Content

      Give reaction or reply to this topic to see the hidden content.


    eCmryx5.png

    Hidden Content

      Give reaction or reply to this topic to see the hidden content.

    Va48KiA.png

    Hidden Content

      Give reaction or reply to this topic to see the hidden content.

    • 13 απαντήσεις
    • 192 views
    • Add Reply

    ΠΑΠΑΔΑΚΗΣ ΔΗΜΗΤΡΗΣ - ΕΚ΄ΒΑΘΕΩΝ

    KRHTH30
    By KRHTH30,

    J8fXS8f.jpg

     

    Artist: Παπαδάκης Δημήτρης
    Album: Εκ΄βαθέων
    Year: 2019
    Tracks: 04
    Size: 46.07 MB
    Codec: Mp3 / 320 kbps
    Covers: Front

     

    RmY8Z.png

    Hidden Content

      Give reaction or reply to this topic to see the hidden content.

    • 12 απαντήσεις
    • 131 views
    • Add Reply

    TRIPLE FRONTIER (2019) WEBRip XviD AC3-FGT | ENΣΩΜΑΤΩΜΕΝΟΙ ΥΠΟΤΙΤΛΟΙ

    вирус
    By вирус,

    ZTGBIb0.jpg

    ΣΚΗΝΟΘΕΣΙΑ : J.C. Chandor
    ΣΕΝΑΡΙΟ : Mark Boal (screenplay), J.C. Chandor 
    ΗΘΟΠΟΙΟΙ : Adria Arjona, Ben Affleck, Charlie Hunnam 
    ΕΙΔΟΣ : Action, Adventure, Crime 
    ΠΡΕΜΙΕΡΑ : 13 March 2019 (USA)

    ΜΕΤΑΦΡΑΣΗ : Ιωάννης Γενιτζές

    Μια ομάδα πρώην πρακτόρων των ειδικών δυνάμεων (Μπεν Άφλεκ, Όσκαρ Άιζακ, Τσάρλι Χάναμ, Γκάρετ Χέντλαντ και Πέντρο Πασκάλ) ενώνεται ξανά για να οργανώσει μια ληστεία σε μια αραιοκατοικημένη ζώνη πολλαπλών συνόρων της Νότιας Αμερικής. Για πρώτη φορά στις υψηλές κύρους καριέρες τους, αυτοί οι άγνωστοι ήρωες αναλαμβάνουν μια επικίνδυνη αποστολή για τους ίδιους τους εαυτούς τους και όχι για τη χώρα τους. Όταν όμως τα γεγονότα παίρνουν μια απροσδόκητη τροπή και απειλούν να ξεφύγουν από τον έλεγχο, οι ικανότητές, η πίστη και η ηθική τους ωθούνται στα άκρα σε μια επική μάχη για επιβίωση.

    nd8imyh.png


    3sZwobQ.png

     

     


    TEXNIKA XAΡΑΚΤΗΡΙΣΤΙΚΑ

    General
    Format                      : AVI
    Format/Info                 : Audio Video Interleave
    Format profile              : OpenDML
    File size                   : 2.20 GiB
    Duration                    : 2 h 5 min
    Overall bit rate            : 2 504 kb/s
    Writing application         : VirtualDubMod 1.5.10.2 (build 2542/release)
    Writing library             : VirtualDubMod build 2542/release

    Video
    ID                          : 0
    Format                      : MPEG-4 Visual
    Format profile              : Advanced [email protected]
    Format settings             : BVOP1
    Format settings, BVOP       : 1
    Format settings, QPel       : No
    Format settings, GMC        : No warppoints
    Format settings, Matrix     : Default (H.263)
    Muxing mode                 : Packed bitstream
    Codec ID                    : XVID
    Codec ID/Hint               : XviD
    Duration                    : 2 h 5 min
    Bit rate                    : 2 046 kb/s
    Width                       : 720 pixels
    Height                      : 340 pixels
    Display aspect ratio        : 2.118
    Frame rate                  : 24.000 FPS
    Color space                 : YUV
    Chroma subsampling          : 4:2:0
    Bit depth                   : 8 bits
    Scan type                   : Progressive
    Compression mode            : Lossy
    Bits/(Pixel*Frame)          : 0.348
    Stream size                 : 1.80 GiB (82%)
    Writing library             : XviD 64

    Audio
    ID                          : 1
    Format                      : AC-3
    Format/Info                 : Audio Coding 3
    Codec ID                    : 2000
    Duration                    : 2 h 5 min
    Bit rate mode               : Constant
    Bit rate                    : 448 kb/s
    Channel(s)                  : 6 channels
    Channel positions           : Front: L C R, Side: L R, LFE
    Sampling rate               : 48.0 kHz
    Frame rate                  : 31.250 FPS (1536 SPF)
    Bit depth                   : 16 bits
    Compression mode            : Lossy
    Stream size                 : 403 MiB (18%)
    Alignment                   : Split accross interleaves
    Interleave, duration        : 64  ms (1.54 video frames)
    Interleave, preload duratio : 500  ms
    Service kind                : Complete Main


    usDrZmS.png

    https://www.imdb.com/title/tt1488606/


    YsK48dD.png

    hsp9fZM.png

    Hidden Content

      Give reaction or reply to this topic to see the hidden content.


    eCmryx5.png

    Hidden Content

      Give reaction or reply to this topic to see the hidden content.

    Va48KiA.png

    Hidden Content

      Give reaction or reply to this topic to see the hidden content.

    • 62 απαντήσεις
    • 515 views
    • Add Reply

    THE CLOVEHITCH KILLER (2018) BRRip XviD AC3-XVID | ENΣΩΜΑΤΩΜΕΝΟΙ ΥΠΟΤΙΤΛΟΙ

    вирус
    By вирус,

    QYhjP8d.jpg

    ΣΚΗΝΟΘΕΣΙΑ :  Duncan Skiles
    ΣΕΝΑΡΙΟ : Christopher Ford
    ΗΘΟΠΟΙΟΙ : Charlie Plummer, Dylan McDermott, Samantha Mathis
    ΕΙΔΟΣ : Drama, Horror, Mystery
    ΠΡΕΜΙΕΡΑ : 16 November 2018 (USA)

    ΜΕΤΑΦΡΑΣΗ : DROOPY

    Η υπόθεση του έργου εστιάζει στον έφηβο ‘Tyler Burnside’ ο οποίος αποφασίζει να φέρει στο σπίτι την νέα του κοπέλα. Ωστόσο, τα πράγματα δεν πάνε όπως τα περίμενε μιας και ο νεαρός γελοιοποιείται μπροστά στα μάτια της καλεσμένης του εκείνη την μέρα.

     

    Η κατάσταση παίρνει μία αναπάντεχα ζοφερή τροπή όταν το αγόρι αρχίζει να ανακαλύπτει συνταρακτικές αλήθειες για το παρελθόν του πατέρα του που είναι σεβαστό μέλος της τοπικής κοινωνίας και αρχηγός της ομάδας προσκόπων στην περιοχή. Το παιδί υποπτεύεται τον γονιό του ως κατά συρροή δολοφόνο δέκα γυναικών που βασανίστηκαν μέχρι θανάτου στα χέρια ενός ψυχοπαθούς δράστη με το ψευδώνυμο “Clovehitch” και η κατάσταση μεταξύ τους γίνεται βαθμιαία ολοένα και πιο τεταμένη και ασταθής.

    JexlJDW.png


    3sZwobQ.png

     

     


    TEXNIKA XAΡΑΚΤΗΡΙΣΤΙΚΑ

    General
    Format                      : AVI
    Format/Info                 : Audio Video Interleave
    File size                   : 1.41 GiB
    Duration                    : 1 h 49 min
    Overall bit rate            : 1 838 kb/s
    Writing application         : VirtualDubMod 1.5.10.2 (build 2542/release)
    Writing library             : VirtualDubMod build 2542/release

    Video
    ID                          : 0
    Format                      : MPEG-4 Visual
    Format profile              : Advanced [email protected]
    Format settings             : BVOP1
    Format settings, BVOP       : 1
    Format settings, QPel       : No
    Format settings, GMC        : No warppoints
    Format settings, Matrix     : Default (H.263)
    Muxing mode                 : Packed bitstream
    Codec ID                    : XVID
    Codec ID/Hint               : XviD
    Duration                    : 1 h 49 min
    Bit rate                    : 1 383 kb/s
    Width                       : 720 pixels
    Height                      : 400 pixels
    Display aspect ratio        : 16:9
    Frame rate                  : 23.976 (24000/1001) FPS
    Color space                 : YUV
    Chroma subsampling          : 4:2:0
    Bit depth                   : 8 bits
    Scan type                   : Progressive
    Compression mode            : Lossy
    Bits/(Pixel*Frame)          : 0.200
    Stream size                 : 1.06 GiB (75%)
    Writing library             : XviD 64

    Audio
    ID                          : 1
    Format                      : AC-3
    Format/Info                 : Audio Coding 3
    Codec ID                    : 2000
    Duration                    : 1 h 49 min
    Bit rate mode               : Constant
    Bit rate                    : 448 kb/s
    Channel(s)                  : 6 channels
    Channel positions           : Front: L C R, Side: L R, LFE
    Sampling rate               : 48.0 kHz
    Frame rate                  : 31.250 FPS (1536 SPF)
    Bit depth                   : 16 bits
    Compression mode            : Lossy
    Stream size                 : 351 MiB (24%)
    Alignment                   : Split accross interleaves
    Interleave, duration        : 64  ms (1.53 video frames)
    Interleave, preload duratio : 500  ms
    Service kind                : Complete Main


    usDrZmS.png

    https://www.imdb.com/title/tt6269368/


    YsK48dD.png

    hsp9fZM.png

    Hidden Content

      Give reaction or reply to this topic to see the hidden content.


    eCmryx5.png

    Hidden Content

      Give reaction or reply to this topic to see the hidden content.

    Va48KiA.png

    Hidden Content

      Give reaction or reply to this topic to see the hidden content.

    • 24 απαντήσεις
    • 266 views
    • Add Reply

Portal by DevFuse · Based on IP.Board Portal by IPS
×