Μετάβαση στο περιεχόμενο
  • Enter forum

  • Enter forum

  • Enter forum

    OUR STRUGGLES / NOS BATAILLES (2018) FRENCH BDRip XviD AC3-EXTREME| ENΣΩΜΑΤ/ΥΠΟΤΙΤ

    вирус
    By вирус,

    6s10FgM.jpg

    ΣΚΗΝΟΘΕΣΙΑ : Guillaume Senez
    ΣΕΝΑΡΙΟ : Raphaelle Desplechin (screenplay), Guillaume Senez 
    ΗΘΟΠΟΙΟΙ : Romain Duris, Basile Grunberger, Lena Girard Voss
    ΕΙΔΟΣ : Drama
    ΠΡΕΜΙΕΡΑ : 3 October 2018 (France)

    ΜΕΤΑΦΡΑΣΗ : KOSTKORO


    Ως μαχόμενος συνδικαλιστής, ο Ολιβιέ προσπαθεί καθημερινά να υπερασπιστεί τα δικαιώματα των συναδέλφων του στο εργοστάσιο. Όταν όμως η γυναίκα του εγκαταλείψει ξαφνικά την οικογένειά τους, εκείνος πρέπει να βρει έναν τρόπο να μείνει κοντά στα δύο μικρά παιδιά του και παράλληλα να αντιμετωπίσει τις έντονες εργασιακές απαιτήσεις.

    hFA0PFy.png


    3sZwobQ.png

     

     


    TEXNIKA XAΡΑΚΤΗΡΙΣΤΙΚΑ

    General
    Format                      : AVI
    Format/Info                 : Audio Video Interleave
    File size                   : 1.37 GiB
    Duration                    : 1 h 38 min
    Overall bit rate            : 1 988 kb/s
    Writing application         : VirtualDubMod 1.5.10.2 (build 2542/release)
    Writing library             : VirtualDubMod build 2542/release

    Video
    ID                          : 0
    Format                      : MPEG-4 Visual
    Format profile              : Advanced [email protected]
    Format settings             : BVOP1
    Format settings, BVOP       : 1
    Format settings, QPel       : No
    Format settings, GMC        : No warppoints
    Format settings, Matrix     : Default (H.263)
    Muxing mode                 : Packed bitstream
    Codec ID                    : XVID
    Codec ID/Hint               : XviD
    Duration                    : 1 h 38 min
    Bit rate                    : 1 596 kb/s
    Width                       : 720 pixels
    Height                      : 304 pixels
    Display aspect ratio        : 2.35:1
    Frame rate                  : 24.000 FPS
    Color space                 : YUV
    Chroma subsampling          : 4:2:0
    Bit depth                   : 8 bits
    Scan type                   : Progressive
    Compression mode            : Lossy
    Bits/(Pixel*Frame)          : 0.304
    Stream size                 : 1.10 GiB (80%)
    Writing library             : XviD 64

    Audio
    ID                          : 1
    Format                      : AC-3
    Format/Info                 : Audio Coding 3
    Codec ID                    : 2000
    Duration                    : 1 h 38 min
    Bit rate mode               : Constant
    Bit rate                    : 384 kb/s
    Channel(s)                  : 6 channels
    Channel positions           : Front: L C R, Side: L R, LFE
    Sampling rate               : 48.0 kHz
    Frame rate                  : 31.250 FPS (1536 SPF)
    Bit depth                   : 16 bits
    Compression mode            : Lossy
    Stream size                 : 271 MiB (19%)
    Alignment                   : Split accross interleaves
    Interleave, duration        : 64  ms (1.54 video frames)
    Interleave, preload duratio : 500  ms
    Service kind                : Complete Main


    usDrZmS.png

    https://www.imdb.com/title/tt7773210/


    YsK48dD.png

    hsp9fZM.png

    Hidden Content

      Give reaction or reply to this topic to see the hidden content.


    eCmryx5.png

    Hidden Content

      Give reaction or reply to this topic to see the hidden content.

    Va48KiA.png

    Hidden Content

      Give reaction or reply to this topic to see the hidden content.


    SLAUGHTERHOUSE RULEZ (2018) BRRip XviD AC3-XVID | ENΣΩΜΑΤΩΜΕΝΟΙ ΥΠΟΤΙΤΛΟΙ

    вирус
    By вирус,

    7P4XSl2.jpg

    ΣΚΗΝΟΘΕΣΙΑ : Crispian Mills
    ΣΕΝΑΡΙΟ : Crispian Mills (screenplay by), Henry Fitzherbert
    ΗΘΟΠΟΙΟΙ : Margot Robbie, Asa Butterfield, Michael Sheen
    ΕΙΔΟΣ : Action, Comedy, Fantasy 
    ΠΡΕΜΙΕΡΑ : 31 October 2018 (UK)

    ΜΕΤΑΦΡΑΣΗ : salas1976

    Στις εγκαταστάσεις ενός ιδιότυπου βρετανικού οικοτροφείου που ονομάζεται ‘Slaughterhouse School’ στο οποίο απ’ ό,τι φαίνεται το στοιχείο του υπερφυσικού είναι πέρα για πέρα αληθινό. Τα πάντα λοιπόν, θα αλλάξουν ριζικά για τους μαθητές και το διδακτικό προσωπικό, όταν μία εταιρεία ύδρευσης ανακαλύψει μία τεράστια υπόγεια τρύπα στο γειτονικό δάσος από την οποία δεν θα αργήσουν να ξεπροβάλλουν τέρατα. Οι άνθρωποι λοιπόν, που βρίσκονται εντός των τειχών του εκπαιδευτηρίου πρέπει να ενώσουν τις δυνάμεις τους για να σώσουν το αγαπημένο τους σχολείο μπλέκοντας σε μία περιπέτεια τρόμου με πολλά όμως ευτράπελα!

    woTdbmU.png


    3sZwobQ.png

     

     


    TEXNIKA XAΡΑΚΤΗΡΙΣΤΙΚΑ

    General
    Format                      : AVI
    Format/Info                 : Audio Video Interleave
    File size                   : 1.40 GiB
    Duration                    : 1 h 43 min
    Overall bit rate            : 1 939 kb/s
    Writing application         : VirtualDubMod 1.5.10.2 (build 2542/release)
    Writing library             : VirtualDubMod build 2542/release

    Video
    ID                          : 0
    Format                      : MPEG-4 Visual
    Format profile              : Advanced [email protected]
    Format settings             : BVOP1
    Format settings, BVOP       : 1
    Format settings, QPel       : No
    Format settings, GMC        : No warppoints
    Format settings, Matrix     : Default (H.263)
    Muxing mode                 : Packed bitstream
    Codec ID                    : XVID
    Codec ID/Hint               : XviD
    Duration                    : 1 h 43 min
    Bit rate                    : 1 483 kb/s
    Width                       : 720 pixels
    Height                      : 302 pixels
    Display aspect ratio        : 2.40:1
    Frame rate                  : 23.976 (24000/1001) FPS
    Color space                 : YUV
    Chroma subsampling          : 4:2:0
    Bit depth                   : 8 bits
    Scan type                   : Progressive
    Compression mode            : Lossy
    Bits/(Pixel*Frame)          : 0.284
    Stream size                 : 1.07 GiB (76%)
    Writing library             : XviD 64

    Audio
    ID                          : 1
    Format                      : AC-3
    Format/Info                 : Audio Coding 3
    Codec ID                    : 2000
    Duration                    : 1 h 43 min
    Bit rate mode               : Constant
    Bit rate                    : 448 kb/s
    Channel(s)                  : 6 channels
    Channel positions           : Front: L C R, Side: L R, LFE
    Sampling rate               : 48.0 kHz
    Frame rate                  : 31.250 FPS (1536 SPF)
    Bit depth                   : 16 bits
    Compression mode            : Lossy
    Stream size                 : 332 MiB (23%)
    Alignment                   : Split accross interleaves
    Interleave, duration        : 64  ms (1.53 video frames)
    Interleave, preload duratio : 500  ms
    Service kind                : Complete Main


    usDrZmS.png

    https://www.imdb.com/title/tt6905696/


    YsK48dD.png

    hsp9fZM.png

    Hidden Content

      Give reaction or reply to this topic to see the hidden content.


    eCmryx5.png

    Hidden Content

      Give reaction or reply to this topic to see the hidden content.

    Va48KiA.png

    Hidden Content

      Give reaction or reply to this topic to see the hidden content.

    • 10 απαντήσεις
    • 210 views
    • Add Reply

    AI RISING (2018) DVDRip XviD AC3-EVO | ENΣΩΜΑΤΩΜΕΝΟΙ ΥΠΟΤΙΤΛΟΙ

    вирус
    By вирус,

    xPSh2TL.jpg

    ΣΚΗΝΟΘΕΣΙΑ : Lazar Bodroza
    ΣΕΝΑΡΙΟ : Zoran Neskovic (based on stories by), Dimitrije Vojnov
    ΗΘΟΠΟΙΟΙ : Sebastian Cavazza, Stoya, Marusa Majer 
    ΕΙΔΟΣ : Drama, Romance, Sci-Fi 
    ΠΡΕΜΙΕΡΑ : 12 March 2019 (USA)

    ΜΕΤΑΦΡΑΣΗ : Άγνωστος

    Ο κοσμοναύτης Milutin και το γυναικείο ρομπότ με το όνομα Nimani έχουν μια αποστολή προς το διάστημα. Αλλά η μεταξύ τους σχέση θα δοκιμάσει τα όρια τους, προς την επιβίωση.......

    Org4En7.png


    3sZwobQ.png

     

     


    TEXNIKA XAΡΑΚΤΗΡΙΣΤΙΚΑ

    General
    Format                      : AVI
    Format/Info                 : Audio Video Interleave
    File size                   : 1.18 GiB
    Duration                    : 1 h 26 min
    Overall bit rate            : 1 961 kb/s
    Writing library             : VirtualDub build 32661/release

    Video
    ID                          : 0
    Format                      : MPEG-4 Visual
    Format profile              : Advanced [email protected]
    Format settings             : BVOP1
    Format settings, BVOP       : 1
    Format settings, QPel       : No
    Format settings, GMC        : No warppoints
    Format settings, Matrix     : Default (H.263)
    Muxing mode                 : Packed bitstream
    Codec ID                    : XVID
    Codec ID/Hint               : XviD
    Duration                    : 1 h 26 min
    Bit rate                    : 1 503 kb/s
    Width                       : 720 pixels
    Height                      : 272 pixels
    Display aspect ratio        : 2.647
    Frame rate                  : 23.976 (24000/1001) FPS
    Color space                 : YUV
    Chroma subsampling          : 4:2:0
    Bit depth                   : 8 bits
    Scan type                   : Progressive
    Compression mode            : Lossy
    Bits/(Pixel*Frame)          : 0.320
    Stream size                 : 928 MiB (77%)
    Writing library             : XviD 64

    Audio
    ID                          : 1
    Format                      : AC-3
    Format/Info                 : Audio Coding 3
    Codec ID                    : 2000
    Duration                    : 1 h 26 min
    Bit rate mode               : Constant
    Bit rate                    : 448 kb/s
    Channel(s)                  : 6 channels
    Channel positions           : Front: L C R, Side: L R, LFE
    Sampling rate               : 48.0 kHz
    Frame rate                  : 31.250 FPS (1536 SPF)
    Bit depth                   : 16 bits
    Compression mode            : Lossy
    Stream size                 : 276 MiB (23%)
    Alignment                   : Split accross interleaves
    Interleave, duration        : 42  ms (1.00 video frame)
    Interleave, preload duratio : 500  ms
    Service kind                : Complete Main


    usDrZmS.png

    https://www.imdb.com/title/tt5215088/


    YsK48dD.png

    hsp9fZM.png

    Hidden Content

      Give reaction or reply to this topic to see the hidden content.


    eCmryx5.png

    Hidden Content

      Give reaction or reply to this topic to see the hidden content.

    Va48KiA.png

    Hidden Content

      Give reaction or reply to this topic to see the hidden content.

    • 19 απαντήσεις
    • 262 views
    • Add Reply

    DESTROYER (2018) DVDSCR XviD AC3-EVO | ENΣΩΜΑΤΩΜΕΝΟΙ ΥΠΟΤΙΤΛΟΙ

    вирус
    By вирус,

    9k04Z7o.jpg

    ΣΚΗΝΟΘΕΣΙΑ : Karyn Kusama
    ΣΕΝΑΡΙΟ : Phil Hay (screenplay), Matt Manfredi (screenplay)
    ΗΘΟΠΟΙΟΙ : Nicole Kidman, Toby Kebbell, Tatiana Maslany
    ΕΙΔΟΣ : Action, Crime, Drama 
    ΠΡΕΜΙΕΡΑ : 3 January 2019 (Greece)

    ΜΕΤΑΦΡΑΣΗ : KASITEROS

    H ντετέκτιβ του αστυνομικού τμήματος του Λος Άντζελες Έριν Μπελ κυνηγάει με διάφορους τρόπους τον επικίνδυνο Σίλας. Ένας από τους τρόπους που χρησιμοποιεί είναι να ενταχθεί στην συμμορία του και να συμμετέχει σε μία από τις ληστείες του, η οποία όμως αποτυγχάνει. Αρκετά χρόνια αργότερα, ο Σίλας επιστρέφει πιο δυνατός και πιο επικίνδυνος από ποτέ και έχει οργανώσει τη μεγαλύτερη ληστεία που μπορεί κανείς να φανταστεί.Η Έριν όμως αυτη τη φορά καταφέρνει να τον εντοπίσει.

    PrdQbaP.png


    3sZwobQ.png

     

     


    TEXNIKA XAΡΑΚΤΗΡΙΣΤΙΚΑ

    General
    Format                      : AVI
    Format/Info                 : Audio Video Interleave
    File size                   : 1.60 GiB
    Duration                    : 2 h 0 min
    Overall bit rate            : 1 897 kb/s
    Writing application         : VirtualDubMod 1.5.10.2 (build 2542/release)
    Writing library             : VirtualDubMod build 2542/release

    Video
    ID                          : 0
    Format                      : MPEG-4 Visual
    Format profile              : Advanced [email protected]
    Format settings             : BVOP1
    Format settings, BVOP       : 1
    Format settings, QPel       : No
    Format settings, GMC        : No warppoints
    Format settings, Matrix     : Default (H.263)
    Muxing mode                 : Packed bitstream
    Codec ID                    : XVID
    Codec ID/Hint               : XviD
    Duration                    : 2 h 0 min
    Bit rate                    : 1 441 kb/s
    Width                       : 720 pixels
    Height                      : 304 pixels
    Display aspect ratio        : 2.35:1
    Frame rate                  : 23.976 (24000/1001) FPS
    Color space                 : YUV
    Chroma subsampling          : 4:2:0
    Bit depth                   : 8 bits
    Scan type                   : Progressive
    Compression mode            : Lossy
    Bits/(Pixel*Frame)          : 0.275
    Stream size                 : 1.22 GiB (76%)
    Writing library             : XviD 64

    Audio
    ID                          : 1
    Format                      : AC-3
    Format/Info                 : Audio Coding 3
    Codec ID                    : 2000
    Duration                    : 2 h 0 min
    Bit rate mode               : Constant
    Bit rate                    : 448 kb/s
    Channel(s)                  : 6 channels
    Channel positions           : Front: L C R, Side: L R, LFE
    Sampling rate               : 48.0 kHz
    Frame rate                  : 31.250 FPS (1536 SPF)
    Bit depth                   : 16 bits
    Compression mode            : Lossy
    Stream size                 : 387 MiB (24%)
    Alignment                   : Split accross interleaves
    Interleave, duration        : 64  ms (1.53 video frames)
    Interleave, preload duratio : 500  ms
    Service kind                : Complete Main


    usDrZmS.png

    https://www.imdb.com/title/tt7137380/


    YsK48dD.png

    hsp9fZM.png

    Hidden Content

      Give reaction or reply to this topic to see the hidden content.


    eCmryx5.png

    Hidden Content

      Give reaction or reply to this topic to see the hidden content.

    Va48KiA.png

    Hidden Content

      Give reaction or reply to this topic to see the hidden content.

    • 45 απαντήσεις
    • 458 views
    • Add Reply

    IF BEALE STREET COULD TALK (2018) BRRip XviD AC3-XVID | ENΣΩΜΑΤΩΜΕΝΟΙ ΥΠΟΤΙΤΛΟΙ

    вирус
    By вирус,

    iPJ7rv3.jpg

    ΣΚΗΝΟΘΕΣΙΑ : Barry Jenkins
    ΣΕΝΑΡΙΟ : Barry Jenkins
    ΗΘΟΠΟΙΟΙ : KiKi Layne, Stephan James, Regina King
    ΕΙΔΟΣ : Crime, Drama, Romance
    ΠΡΕΜΙΕΡΑ : 21 February 2019 (Greece)

    ΜΕΤΑΦΡΑΣΗ : KOSTKORO

    Χάρλεμ, αρχές δεκαετίας του '70. Η Tish (Kiki Layne) και ο Fonny (Stephen James) είναι πολύ ερωτευμένοι. Η ζωή τους ανατρέπεται όταν ο Fonny φυλακίζεται για ένα έγκλημα που δεν έχει διαπράξει. Η Tish ανακαλύπτει ότι είναι έγκυος και αγωνίζεται με τη βοήθεια του δικηγόρου και της οικογένειας της για να αποδείξει την αθωότητά του...

    esClVgb.png


    3sZwobQ.png

     

     


    TEXNIKA XAΡΑΚΤΗΡΙΣΤΙΚΑ

    General
    Format                      : AVI
    Format/Info                 : Audio Video Interleave
    File size                   : 1.17 GiB
    Duration                    : 1 h 59 min
    Overall bit rate            : 1 410 kb/s
    Writing application         : VirtualDubMod 1.5.10.2 (build 2542/release)
    Writing library             : VirtualDubMod build 2542/release

    Video
    ID                          : 0
    Format                      : MPEG-4 Visual
    Format profile              : Advanced [email protected]
    Format settings             : BVOP1
    Format settings, BVOP       : 1
    Format settings, QPel       : No
    Format settings, GMC        : No warppoints
    Format settings, Matrix     : Default (H.263)
    Muxing mode                 : Packed bitstream
    Codec ID                    : XVID
    Codec ID/Hint               : XviD
    Duration                    : 1 h 59 min
    Bit rate                    : 954 kb/s
    Width                       : 720 pixels
    Height                      : 360 pixels
    Display aspect ratio        : 2.000
    Frame rate                  : 23.976 (24000/1001) FPS
    Color space                 : YUV
    Chroma subsampling          : 4:2:0
    Bit depth                   : 8 bits
    Scan type                   : Progressive
    Compression mode            : Lossy
    Bits/(Pixel*Frame)          : 0.153
    Stream size                 : 812 MiB (68%)
    Writing library             : XviD 64

    Audio
    ID                          : 1
    Format                      : AC-3
    Format/Info                 : Audio Coding 3
    Codec ID                    : 2000
    Duration                    : 1 h 59 min
    Bit rate mode               : Constant
    Bit rate                    : 448 kb/s
    Channel(s)                  : 6 channels
    Channel positions           : Front: L C R, Side: L R, LFE
    Sampling rate               : 48.0 kHz
    Frame rate                  : 31.250 FPS (1536 SPF)
    Bit depth                   : 16 bits
    Compression mode            : Lossy
    Stream size                 : 382 MiB (32%)
    Alignment                   : Split accross interleaves
    Interleave, duration        : 64  ms (1.53 video frames)
    Interleave, preload duratio : 500  ms
    Service kind                : Complete Main


    usDrZmS.png

    https://www.imdb.com/title/tt7125860/


    YsK48dD.png

    hsp9fZM.png

    Hidden Content

      Give reaction or reply to this topic to see the hidden content.


    eCmryx5.png

    Hidden Content

      Give reaction or reply to this topic to see the hidden content.

    Va48KiA.png

    Hidden Content

      Give reaction or reply to this topic to see the hidden content.

    • 15 απαντήσεις
    • 154 views
    • Add Reply

Portal by DevFuse · Based on IP.Board Portal by IPS
×