Μετάβαση στο περιεχόμενο
  • Enter forum

  • Enter forum

  • Enter forum

    DEAD IN A WEEK OR YOUR MONEY BACK (2018) BDRip XviD AC3-EVO | ENΣΩΜΑΤΩΜΕΝΟΙ ΥΠΟΤΙΤΛΟΙ

    вирус
    By вирус,

    k2RLHau.jpg

    ΣΚΗΝΟΘΕΣΙΑ : Tom Edmunds
    ΣΕΝΑΡΙΟ : Tom Edmunds
    ΗΘΟΠΟΙΟΙ : Aneurin Barnard, Christopher Eccleston, Freya Mavor
    ΕΙΔΟΣ : Action, Comedy, Drama 
    ΠΡΕΜΙΕΡΑ : 12 October 2018 (Taiwan)

    ΜΕΤΑΦΡΑΣΗ : Άγνωστος

    Μετά την ένατη αποτυχημένη του προσπάθεια να βάλει τέλος στην ζωή του, ένας νεαρός αναθέτει την αυτοκτονία του σε έναν ηλικιωμένο δολοφόνο. Αν θέλει στην πραγματικότητα να αφερέσει την ζωή του, τότε χρειάζεται "επαγγελματική βοήθεια"...

    joCculS.png


    3sZwobQ.png

     

     


    TEXNIKA XAΡΑΚΤΗΡΙΣΤΙΚΑ

    General
    Format                      : AVI
    Format/Info                 : Audio Video Interleave
    File size                   : 1.32 GiB
    Duration                    : 1 h 30 min
    Overall bit rate            : 2 093 kb/s
    Writing application         : VirtualDubMod 1.5.10.2 (build 2542/release)
    Writing library             : VirtualDub build 32661/release

    Video
    ID                          : 0
    Format                      : MPEG-4 Visual
    Format profile              : Advanced [email protected]
    Format settings             : BVOP1
    Format settings, BVOP       : 1
    Format settings, QPel       : No
    Format settings, GMC        : No warppoints
    Format settings, Matrix     : Default (H.263)
    Muxing mode                 : Packed bitstream
    Codec ID                    : XVID
    Codec ID/Hint               : XviD
    Duration                    : 1 h 30 min
    Bit rate                    : 1 699 kb/s
    Width                       : 720 pixels
    Height                      : 384 pixels
    Display aspect ratio        : 1.85:1
    Frame rate                  : 24.000 FPS
    Color space                 : YUV
    Chroma subsampling          : 4:2:0
    Bit depth                   : 8 bits
    Scan type                   : Progressive
    Compression mode            : Lossy
    Bits/(Pixel*Frame)          : 0.256
    Stream size                 : 1.07 GiB (81%)
    Writing library             : XviD 64

    Audio
    ID                          : 1
    Format                      : AC-3
    Format/Info                 : Audio Coding 3
    Codec ID                    : 2000
    Duration                    : 1 h 30 min
    Bit rate mode               : Constant
    Bit rate                    : 384 kb/s
    Channel(s)                  : 6 channels
    Channel positions           : Front: L C R, Side: L R, LFE
    Sampling rate               : 48.0 kHz
    Frame rate                  : 31.250 FPS (1536 SPF)
    Bit depth                   : 16 bits
    Compression mode            : Lossy
    Stream size                 : 248 MiB (18%)
    Alignment                   : Split accross interleaves
    Interleave, duration        : 42  ms (1.00 video frame)
    Interleave, preload duratio : 500  ms
    Service kind                : Complete Main


    usDrZmS.png

    https://www.imdb.com/title/tt3525168/


    YsK48dD.png

    hsp9fZM.png

    Hidden Content

      Give reaction or reply to this topic to see the hidden content.


    eCmryx5.png

    Hidden Content

      Give reaction or reply to this topic to see the hidden content.

    Va48KiA.png

    Hidden Content

      Give reaction or reply to this topic to see the hidden content.


    DAMSEL (2018) HDRip XviD AC3-iFT | ENΣΩΜΑΤΩΜΕΝΟΙ ΥΠΟΤΙΤΛΟΙ

    вирус
    By вирус,

    Zrs1eRI.jpg

    ΣΚΗΝΟΘΕΣΙΑ : David Zellner, Nathan Zellner
    ΣΕΝΑΡΙΟ : David Zellner, Nathan Zellner
    ΗΘΟΠΟΙΟΙ :  Robert Pattinson, Mia Wasikowska, David Zellner 
    ΕΙΔΟΣ : Comedy, Drama, Western
    ΠΡΕΜΙΕΡΑ : 22 June 2018 (USA)

    ΜΕΤΑΦΡΑΣΗ : Δώρα Φώτου

    Ο Samuel Alabaster (Robert Pattinson) ξεκινά ένα ταξίδι στην Άγρια Δύση προκειμένου να βρει και να διασώσει την αρραβωνιαστικιά του και έρωτα της ζωής του, Penelope (Mia Wasikowska), που έπεσε θύμα απαγωγής. Στο ταξίδι τον συνοδεύουν ο Butterscotch, ένα πόνι που σκοπεύει να πάει ως δώρο γάμου στη μέλλουσα γυναίκα του, και ο Henry (David Zellner), ο εφημέριος που θα τους παντρέψει. Δεν είναι σίγουρο όμως πως η Penelope θέλει τελικά να διασωθεί…

    lKXGKvT.png


    3sZwobQ.png

     

     


    TEXNIKA XAΡΑΚΤΗΡΙΣΤΙΚΑ

    General
    Format                      : AVI
    Format/Info                 : Audio Video Interleave
    File size                   : 1.90 GiB
    Duration                    : 1 h 53 min
    Overall bit rate            : 2 404 kb/s
    Writing application         : VirtualDubMod 1.5.10.2 (build 2542/release)
    Writing library             : VirtualDubMod build 2542/release

    Video
    ID                          : 0
    Format                      : MPEG-4 Visual
    Format profile              : Advanced [email protected]
    Format settings             : BVOP1
    Format settings, BVOP       : 1
    Format settings, QPel       : No
    Format settings, GMC        : No warppoints
    Format settings, Matrix     : Default (H.263)
    Muxing mode                 : Packed bitstream
    Codec ID                    : XVID
    Codec ID/Hint               : XviD
    Duration                    : 1 h 53 min
    Bit rate                    : 2 012 kb/s
    Width                       : 720 pixels
    Height                      : 304 pixels
    Display aspect ratio        : 2.35:1
    Frame rate                  : 23.976 (24000/1001) FPS
    Color space                 : YUV
    Chroma subsampling          : 4:2:0
    Bit depth                   : 8 bits
    Scan type                   : Progressive
    Compression mode            : Lossy
    Bits/(Pixel*Frame)          : 0.383
    Stream size                 : 1.59 GiB (84%)
    Writing library             : XviD 64

    Audio
    ID                          : 1
    Format                      : AC-3
    Format/Info                 : Audio Coding 3
    Codec ID                    : 2000
    Duration                    : 1 h 53 min
    Bit rate mode               : Constant
    Bit rate                    : 384 kb/s
    Channel(s)                  : 6 channels
    Channel positions           : Front: L C R, Side: L R, LFE
    Sampling rate               : 48.0 kHz
    Frame rate                  : 31.250 FPS (1536 SPF)
    Bit depth                   : 16 bits
    Compression mode            : Lossy
    Stream size                 : 312 MiB (16%)
    Alignment                   : Split accross interleaves
    Interleave, duration        : 64  ms (1.53 video frames)
    Interleave, preload duratio : 500  ms
    Service kind                : Complete Main


    usDrZmS.png

    https://www.imdb.com/title/tt5881528/


    YsK48dD.png

    hsp9fZM.png

    Hidden Content

      Give reaction or reply to this topic to see the hidden content.


    eCmryx5.png

    Hidden Content

      Give reaction or reply to this topic to see the hidden content.

    Va48KiA.png

    Hidden Content

      Give reaction or reply to this topic to see the hidden content.

    • 12 απαντήσεις
    • 135 views
    • Add Reply

    THE MULE (2018) BRRip XviD AC3-XVID | ENΣΩΜΑΤΩΜΕΝΟΙ ΥΠΟΤΙΤΛΟΙ

    вирус
    By вирус,

    OZAQc9J.jpg

    ΣΚΗΝΟΘΕΣΙΑ : Clint Eastwood
    ΣΕΝΑΡΙΟ : Sam Dolnick 
    ΗΘΟΠΟΙΟΙ : Clint Eastwood, Patrick L. Reyes, Cesar De León
    ΕΙΔΟΣ : Crime, Drama, Thriller 
    ΠΡΕΜΙΕΡΑ : 3 January 2019 (Greece)

    ΜΕΤΑΦΡΑΣΗ : Άγνωστος

    Ο ογδοντάχρονος Ερλ Στόουν (Κλιντ Ίστγουντ) είναι απένταρος, μόνος και αντιμέτωπος με τη χρεοκοπία της επιχείρησής του, όταν του προσφέρεται μία δουλειά, στην οποία - φαινομενικά- πρέπει απλά να οδηγεί. Στην πραγματικότητα, γίνεται μεταφορέας στην υπηρεσία του μεξικάνικου καρτέλ ναρκωτικών. Τα πάει καλά, τόσο καλά που οι «παραγγελίες» ολοένα και αυξάνονται και ο ίδιος σύντομα ανεβαίνει στην ιεραρχία της «επιχείρησης». Δεν αργεί ωστόσο να τον εντοπίσει το ραντάρ του σκληρού πράκτορα της υπηρεσίας για την καταπολέμηση των ναρκωτικών Κόλιν Μπέιτς (Μπράντλεϊ Κούπερ). Έτσι, παρόλο που τα οικονομικά του προβλήματα ανήκουν στο παρελθόν, τα προηγούμενα λάθη του αρχίζουν να τον βαραίνουν σε τέτοιο βαθμό που είναι αβέβαιο αν θα έχει το χρόνο να τα διορθώσει, πριν βρεθεί ενώπιον της επιβολής του νόμου ή των αρχηγών του καρτέλ.

    oULnwtv.png


    3sZwobQ.png

     

     


    TEXNIKA XAΡΑΚΤΗΡΙΣΤΙΚΑ

    General
    Format                      : AVI
    Format/Info                 : Audio Video Interleave
    File size                   : 1.65 GiB
    Duration                    : 1 h 56 min
    Overall bit rate            : 2 033 kb/s
    Writing application         : VirtualDubMod 1.5.10.2 (build 2542/release)
    Writing library             : VirtualDubMod build 2542/release

    Video
    ID                          : 0
    Format                      : MPEG-4 Visual
    Format profile              : Advanced [email protected]
    Format settings             : BVOP1
    Format settings, BVOP       : 1
    Format settings, QPel       : No
    Format settings, GMC        : No warppoints
    Format settings, Matrix     : Default (H.263)
    Muxing mode                 : Packed bitstream
    Codec ID                    : XVID
    Codec ID/Hint               : XviD
    Duration                    : 1 h 56 min
    Bit rate                    : 1 577 kb/s
    Width                       : 720 pixels
    Height                      : 302 pixels
    Display aspect ratio        : 2.40:1
    Frame rate                  : 23.976 (24000/1001) FPS
    Color space                 : YUV
    Chroma subsampling          : 4:2:0
    Bit depth                   : 8 bits
    Scan type                   : Progressive
    Compression mode            : Lossy
    Bits/(Pixel*Frame)          : 0.303
    Stream size                 : 1.28 GiB (78%)
    Writing library             : XviD 64

    Audio
    ID                          : 1
    Format                      : AC-3
    Format/Info                 : Audio Coding 3
    Codec ID                    : 2000
    Duration                    : 1 h 56 min
    Bit rate mode               : Constant
    Bit rate                    : 448 kb/s
    Channel(s)                  : 6 channels
    Channel positions           : Front: L C R, Side: L R, LFE
    Sampling rate               : 48.0 kHz
    Frame rate                  : 31.250 FPS (1536 SPF)
    Bit depth                   : 16 bits
    Compression mode            : Lossy
    Stream size                 : 373 MiB (22%)
    Alignment                   : Split accross interleaves
    Interleave, duration        : 64  ms (1.53 video frames)
    Interleave, preload duratio : 500  ms
    Service kind                : Complete Main


    usDrZmS.png

    https://www.imdb.com/title/tt7959026/


    YsK48dD.png

    hsp9fZM.png

    Hidden Content

      Give reaction or reply to this topic to see the hidden content.


    eCmryx5.png

    Hidden Content

      Give reaction or reply to this topic to see the hidden content.

    Va48KiA.png

    Hidden Content

      Give reaction or reply to this topic to see the hidden content.

    • 38 απαντήσεις
    • 264 views
    • Add Reply

    ΜΑΥΡΟΓΙΑΝΝΑΚΗΣ ΓΙΩΡΓΗΣ - Η ΛΕΒΕΝΤΙΑ ΤΗΣ ΚΡΗΤΗΣ (LP) (1979)

    President
    By President,

    AtNhXwi.jpg

     


    Artist: Μαυρογιαννάκης Γιώργης
    Album: Η λεβεντιά της Κρήτης
    Year: 1979
    Tracks: 09
    Size: 55.0 MB
    Codec: Mp3 / 192 kbps
    Covers: Front&Back

     

    HjBdt.png

     

    Back Cover: Here

     

    RmY8Z.png

    Hidden Content

      Give reaction or reply to this topic to see the hidden content.

     

    MCFyYyM.png

    Hidden Content

      Give reaction or reply to this topic to see the hidden content.


    STAN & OLLIE / STAN AND OLLIE (2018) BRRip XviD AC3-XVID | ENΣΩΜΑΤΩΜΕΝΟΙ ΥΠΟΤΙΤΛΟΙ

    вирус
    By вирус,

    mitPLkk.jpg

    ΣΚΗΝΟΘΕΣΙΑ : Jon S. Baird
    ΣΕΝΑΡΙΟ : Jeff Pope, 'A.J.' Marriot
    ΗΘΟΠΟΙΟΙ : Steve Coogan, John C. Reilly, Shirley Henderson 
    ΕΙΔΟΣ : Biography, Comedy, Drama 
    ΠΡΕΜΙΕΡΑ : 24 January 2019 (Greece)

    ΜΕΤΑΦΡΑΣΗ : AvereL

    Οι εξαιρετικοί Τζον Σ. Ράιλι («Chicago») και Στιβ Κούγκαν («Philomena») ενσαρκώνουν ιδανικά τον Χοντρό και τον Λιγνό καθώς μεταμορφώνονται αριστοτεχνικά στο εμβληματικό κωμικό δίδυμο που έγραψε ιστορία από τα τέλη της δεκαετίας του 1920 μέχρι τα τέλη του 1940. Η κινηματογραφική βιογραφία σε σενάριο του υποψήφιου για Όσκαρ Τζεφ Πόουπ («Philomena») και σκηνοθεσία του Τζον Σ. Μπέιρντ («Filth») παρουσιάζει ένα εύστοχο πορτρέτο της δυνατής -και τρικυμιώδους- φιλίας των δύο αντρών, ενώ αποτίνει έναν συγκινητικό φόρο τιμής σε αυτούς τους θρύλους της κωμωδίας.

     

    Ο Σταν Λόρελ και ο Όλιβερ Χάρντι θεωρούνται ένα από τα σπουδαιότερα κωμικά δίδυμα στην ιστορία του κινηματογράφου. Ανάμεσα στο 1927 και το 1950 έκαναν πάνω από 107 κινηματογραφικές εμφανίσεις (32 βουβές ταινίες μικρού μήκους, 40 ταινίες μικρού μήκους με ήχο, 23 μεγάλου μήκους, 12 ανεπίσημες εμφανίσεις σε άλλες ταινίες), ορίζοντας την έννοια του κωμικού διδύμου με τη μεταδοτική χημεία τους και τα ξεκαρδιστικά νούμερα που έμοιαζαν αβίαστα, αλλά ήταν σχεδιασμένα μέχρι την τελευταία λεπτομέρεια. Το δίδυμο ανήκε στους λίγους σταρ του βωβού κινηματογράφου που επιβίωσε και έλαμψε στην εποχή του ομιλούντος κινηματογράφου, με τη χρήση των λογοπαίγνιων στα έργα τους.

    i8lLy8Y.png


    3sZwobQ.png

     

     


    TEXNIKA XAΡΑΚΤΗΡΙΣΤΙΚΑ

    General
    Format                      : AVI
    Format/Info                 : Audio Video Interleave
    File size                   : 1.33 GiB
    Duration                    : 1 h 37 min
    Overall bit rate            : 1 951 kb/s
    Writing application         : VirtualDubMod 1.5.10.2 (build 2542/release)
    Writing library             : VirtualDubMod build 2542/release

    Video
    ID                          : 0
    Format                      : MPEG-4 Visual
    Format profile              : Advanced [email protected]
    Format settings             : BVOP1
    Format settings, BVOP       : 1
    Format settings, QPel       : No
    Format settings, GMC        : No warppoints
    Format settings, Matrix     : Default (H.263)
    Muxing mode                 : Packed bitstream
    Codec ID                    : XVID
    Codec ID/Hint               : XviD
    Duration                    : 1 h 37 min
    Bit rate                    : 1 495 kb/s
    Width                       : 720 pixels
    Height                      : 302 pixels
    Display aspect ratio        : 2.40:1
    Frame rate                  : 23.976 (24000/1001) FPS
    Color space                 : YUV
    Chroma subsampling          : 4:2:0
    Bit depth                   : 8 bits
    Scan type                   : Progressive
    Compression mode            : Lossy
    Bits/(Pixel*Frame)          : 0.287
    Stream size                 : 1.02 GiB (77%)
    Writing library             : XviD 64

    Audio
    ID                          : 1
    Format                      : AC-3
    Format/Info                 : Audio Coding 3
    Codec ID                    : 2000
    Duration                    : 1 h 37 min
    Bit rate mode               : Constant
    Bit rate                    : 448 kb/s
    Channel(s)                  : 6 channels
    Channel positions           : Front: L C R, Side: L R, LFE
    Sampling rate               : 48.0 kHz
    Frame rate                  : 31.250 FPS (1536 SPF)
    Bit depth                   : 16 bits
    Compression mode            : Lossy
    Stream size                 : 313 MiB (23%)
    Alignment                   : Split accross interleaves
    Interleave, duration        : 64  ms (1.53 video frames)
    Interleave, preload duratio : 500  ms
    Service kind                : Complete Main


    usDrZmS.png

    https://www.imdb.com/title/tt3385524/


    YsK48dD.png

    hsp9fZM.png

    Hidden Content

      Give reaction or reply to this topic to see the hidden content.


    eCmryx5.png

    Hidden Content

      Give reaction or reply to this topic to see the hidden content.

    Va48KiA.png

    Hidden Content

      Give reaction or reply to this topic to see the hidden content.

    • 62 απαντήσεις
    • 429 views
    • Add Reply

Portal by DevFuse · Based on IP.Board Portal by IPS
×